<?xml version="1.0" standalone="no"?>
<!DOCTYPE svg PUBLIC "-//W3C//DTD SVG 1.1//EN" "http://www.w3.org/Graphics/SVG/1.1/DTD/svg11.dtd" >
<svg xmlns="http://www.w3.org/2000/svg">
<metadata>Generated by IcoMoon</metadata>
<defs>
<font id="chromium" horiz-adv-x="1024">
<font-face units-per-em="1024" ascent="960" descent="-64" />
<missing-glyph horiz-adv-x="1024" />
<glyph unicode="&#x20;" horiz-adv-x="512" d="" />
<glyph unicode="&#xe900;" glyph-name="wallet" d="M977.447 443.705v143.921c0 48.802-37.854 88.491-85.681 92.34l-133.656 233.451c-12.386 21.591-32.386 37.023-56.318 43.431-23.819 6.364-48.726 3.022-70.044-9.386l-458.181-266.745h-80.471c-51.34 0-93.090-41.748-93.090-93.090v-558.536c0-51.34 41.748-93.090 93.090-93.090h791.261c51.34 0 93.090 41.748 93.090 93.090v143.921c27.030 9.639 46.544 35.229 46.544 65.53v139.634c0 30.301-19.514 55.891-46.544 65.53zM837.682 680.717h-202.843l152.134 88.572 50.709-88.572zM763.849 809.68l-221.514-128.963h-91.881l290.421 169.088 22.974-40.125zM655.178 907.236c10.523 6.159 22.817 7.796 34.568 4.658 11.886-3.181 21.796-10.863 27.955-21.613l0.048-0.085-359.798-209.479h-91.877l389.103 226.519zM930.901 29.090c0-25.658-20.886-46.544-46.544-46.544h-791.261c-25.658 0-46.544 20.886-46.544 46.544v558.536c0 25.658 20.886 46.544 46.544 46.544h791.261c25.658 0 46.544-20.886 46.544-46.544v-139.634h-139.634c-76.999 0-139.634-62.635-139.634-139.634s62.635-139.634 139.634-139.634h139.634v-139.634zM977.447 238.541c0-12.84-10.431-23.273-23.273-23.273h-162.907c-51.34 0-93.090 41.748-93.090 93.090 0 51.34 41.748 93.090 93.090 93.090h162.907c12.84 0 23.273-10.431 23.273-23.273v-139.634zM791.267 354.902c-25.658 0-46.544-20.886-46.544-46.544s20.886-46.544 46.544-46.544c25.658 0 46.544 20.886 46.544 46.544 0.002 25.658-20.884 46.544-46.544 46.544z" />
<glyph unicode="&#xe901;" glyph-name="update-arrows" d="M994.606 848.602c-20.080 4.309-39.834-8.484-44.133-28.555l-27.012-126.052c-86.001 146.715-243.855 238.782-416.864 238.782-266.439 0-483.201-216.76-483.201-483.201 0-20.526 16.64-37.169 37.169-37.169 20.526 0 37.169 16.643 37.169 37.169 0 225.448 183.414 408.863 408.863 408.863 146.979 0 281.045-78.511 353.629-203.518l-123.92 26.557c-20.077 4.303-39.834-8.486-44.13-28.558-4.3-20.071 8.486-39.834 28.558-44.133l212.716-45.584c3.613-0.776 7.282-0.999 10.901-0.696 6.027 0.508 11.903 2.486 17.077 5.834 8.278 5.355 14.089 13.779 16.155 23.417l45.587 212.716c4.294 20.068-8.492 39.825-28.564 44.13zM957.205 498.295c-20.514-0.678-36.601-17.859-35.923-38.374 3.604-109.153-35.51-213.171-110.146-292.906-74.633-79.727-175.847-125.626-284.997-129.23-4.55-0.149-9.075-0.223-13.607-0.223-142.421 0.006-273.62 73.973-347.715 193.816l129.192-34.642c19.828-5.314 40.211 6.447 45.528 26.277 5.317 19.828-6.447 40.208-26.274 45.531l-210.123 56.337c-9.521 2.548-19.67 1.216-28.204-3.708-8.54-4.924-14.77-13.045-17.324-22.566l-56.334-210.129c-5.317-19.828 6.447-40.208 26.274-45.528 3.226-0.865 6.462-1.282 9.649-1.282 16.408 0 31.427 10.955 35.879 27.556l31.665 118.1c88.088-138.707 241.419-224.107 407.768-224.101 5.343 0 10.717 0.086 16.081 0.265 128.995 4.264 248.612 58.502 336.817 152.727s134.431 217.161 130.17 346.159c-0.675 20.512-17.865 36.649-38.377 35.92z" />
<glyph unicode="&#xe902;" glyph-name="stats" d="M939.857 51.895h-823.963v823.963c0 18.257-14.288 32.546-32.546 32.546s-32.546-14.288-32.546-32.546v-856.509c0-18.257 14.288-32.546 32.546-32.546h856.509c18.257 0 32.546 14.288 32.546 32.546s-14.288 32.546-32.546 32.546zM431.033 177.315v468.341c0 18.257-14.288 32.546-32.546 32.546s-32.546-14.288-32.546-32.546v-468.341c0-18.257 14.288-32.546 32.546-32.546s32.546 14.288 32.546 32.546zM273.86 177.315v468.341c0 18.257-14.288 32.546-32.546 32.546s-32.546-14.288-32.546-32.546v-468.341c0-18.257 14.288-32.546 32.546-32.546s32.546 14.288 32.546 32.546zM745.377 177.315v468.341c0 18.257-14.288 32.546-32.546 32.546s-32.546-14.288-32.546-32.546v-468.341c0-18.257 14.288-32.546 32.546-32.546s32.546 14.288 32.546 32.546zM902.549 177.315v234.171c0 18.257-14.288 32.546-32.546 32.546s-32.546-14.288-32.546-32.546v-234.171c0-18.257 14.288-32.546 32.546-32.546s32.546 14.288 32.546 32.546zM588.205 177.315v234.171c0 18.257-14.288 32.546-32.546 32.546s-32.546-14.288-32.546-32.546v-234.171c0-18.257 14.288-32.546 32.546-32.546s32.546 14.288 32.546 32.546z" />
<glyph unicode="&#xe903;" glyph-name="shopping-cart" d="M180.726 144.407c-57.458 0-104.205-46.745-104.205-104.203s46.745-104.203 104.205-104.203c57.458 0 104.203 46.745 104.203 104.203s-46.745 104.203-104.203 104.203zM180.726 0.41c-21.942 0-39.795 17.85-39.795 39.793s17.85 39.793 39.795 39.793c21.942 0 39.793-17.85 39.793-39.793s-17.85-39.793-39.793-39.793zM735.793 144.407c-57.458 0-104.203-46.745-104.203-104.203s46.745-104.203 104.203-104.203c57.458 0 104.205 46.745 104.205 104.203s-46.747 104.203-104.205 104.203zM735.793 0.41c-21.942 0-39.793 17.85-39.793 39.793s17.85 39.793 39.793 39.793c21.942 0 39.795-17.85 39.795-39.793s-17.852-39.793-39.795-39.793zM887.403 960l-21.116-128.82h-861.996l61.696-377.615c8.682-52.967 57.527-94.457 111.202-94.457h611.718l-14.078-85.88h-666.101v-64.41h720.813l112.572 686.772h77.595v64.41h-132.305zM799.464 423.518h-622.274c-21.844 0-44.106 18.911-47.638 40.452l-49.473 302.8h775.65l-56.264-343.252z" />
<glyph unicode="&#xe904;" glyph-name="paper-plane" d="M1023.808 927.83c0 1.184 0 2.305-0.128 3.425s-0.096 2.241-0.384 3.329c-0.16 0.672-0.512 1.216-0.64 1.825-0.384 1.184-0.736 2.337-1.216 3.457-0.288 0.672-0.384 1.376-0.672 2.049-0.608 0.96-1.184 1.857-1.889 2.817-0.576 0.928-1.184 1.825-1.857 2.657-0.96 1.216-1.985 2.433-3.073 3.521-0.288 0.256-0.416 0.576-0.64 0.8-0.512 0.448-1.12 0.544-1.633 0.928-0.608 0.48-1.088 0.896-1.665 1.312-0.48 0.32-0.672 0.736-1.056 1.024-0.128 0.096-0.288 0.096-0.48 0.16-0.224 0.16-0.352 0.352-0.576 0.448-1.216 0.736-2.593 1.024-3.873 1.568-1.024 0.448-1.985 0.896-3.073 1.216-0.96 0.352-1.985 0.608-2.913 0.768-1.152 0.256-2.241 0.256-3.425 0.384-1.056 0.192-2.465 0.48-3.905 0.48-0.416-0.064-0.768-0.224-1.152-0.256-0.672-0.032-1.504-0.288-2.305-0.416-1.184-0.192-2.209-0.32-3.361-0.64-1.312-0.384-2.561-0.768-3.809-1.344-0.992-0.416-1.985-0.896-2.913-1.472-0.832-0.448-1.825-0.736-2.593-1.28-0.224-0.16-0.544-0.224-0.672-0.352h-0.032l-960.14-671.954c-11.428-8.003-16.389-22.535-12.196-35.851 4.193-13.284 16.613-22.343 30.506-22.343h320.1v-256.080c0-1.184 0.608-2.177 0.672-3.329 0.256-2.209 0.64-4.321 1.28-6.402 0.672-1.985 1.472-3.713 2.369-5.506 0.992-1.793 2.049-3.329 3.361-4.93 1.408-1.729 2.977-3.169 4.705-4.513 0.864-0.736 1.44-1.793 2.369-2.369 0.992-0.672 2.081-0.832 3.137-1.376 0.992-0.544 1.985-0.928 3.041-1.376 3.617-1.312 7.266-2.209 11.011-2.209h0.096c3.809 0.064 7.49 0.896 11.107 2.241 0.704 0.288 1.504 0.576 2.209 0.864 3.297 1.44 6.242 3.329 8.867 5.986 0.448 0.48 0.704 0.928 1.152 1.376 1.28 1.44 2.593 2.753 3.617 4.481l115.684 182.745c0.704-0.544 1.216-1.248 1.985-1.697l352.11-192.092c9.443-5.026 20.71-5.25 30.249-0.192 9.539 4.994 15.813 14.437 16.869 25.128l95.71 959.98c0.32 1.056 0.064 1.985 0.064 3.009zM370.036 288.11h-236.394l644.393 451.053-407.999-451.053zM416.162 78.348v165.364l348.973 385.753-348.973-551.116zM869.296 19.194l-308.32 168.117 385.881 609.374-77.56-777.491z" />
<glyph unicode="&#xe905;" glyph-name="heart" d="M512-30.369c-9.639 0-18.84 4.016-25.397 11.080l-409.255 441.099c-0.105 0.114-0.211 0.227-0.313 0.341-49.678 55.004-77.034 127.898-77.034 205.257 0 77.361 27.357 150.252 77.034 205.254l6.219 6.884c50.567 55.985 118.085 86.82 190.116 86.82s139.552-30.835 190.122-86.823l48.508-53.71 48.508 53.707c50.567 55.988 118.085 86.823 190.119 86.823s139.552-30.835 190.122-86.826l6.211-6.868c49.686-55.015 77.043-127.906 77.043-205.265s-27.359-150.252-77.034-205.254c-0.103-0.119-0.208-0.233-0.313-0.346l-409.258-441.099c-6.557-7.056-15.758-11.075-25.397-11.075zM128.303 468.761l383.697-413.548 383.697 413.551c78.944 87.585 78.894 229.945-0.152 317.463l-6.205 6.868c-37.273 41.269-86.535 63.992-138.712 63.992-52.18 0-101.442-22.723-138.704-63.978l-74.213-82.173c-6.565-7.272-15.908-11.421-25.705-11.421s-19.139 4.149-25.708 11.421l-74.216 82.167c-37.264 41.258-86.524 63.981-138.704 63.981s-101.442-22.72-138.704-63.978l-6.219-6.884c-79.046-87.519-79.099-229.878-0.152-317.46z" />
<glyph unicode="&#xe906;" glyph-name="gift" d="M921.6 704h-180.378c15.224 5.598 28.364 11.452 38.178 17.134 61.218 35.346 82.194 113.63 46.848 174.848-23.706 41.064-66.73 64.018-110.966 64.018-21.708 0-43.724-5.53-63.88-17.17-38.23-22.084-104.004-85.862-139.4-145.578-35.396 59.7-101.172 123.494-139.4 145.578-20.158 11.64-42.158 17.17-63.884 17.17-44.236 0-87.262-22.954-110.968-64.018-35.346-61.218-14.37-139.502 46.848-174.848 9.814-5.666 22.954-11.52 38.178-17.134h-180.376c-28.28 0-51.2-22.92-51.2-51.2v-153.6c0-28.28 22.92-51.2 51.2-51.2v-460.8c0-28.28 22.92-51.2 51.2-51.2h716.8c28.28 0 51.2 22.92 51.2 51.2v460.8c28.28 0 51.2 22.92 51.2 51.2v153.6c0 28.28-22.92 51.2-51.2 51.2zM677 898.492c11.69 6.742 24.918 10.308 38.28 10.308 27.426 0 52.958-14.728 66.628-38.418 21.18-36.676 8.568-83.73-28.108-104.908-29.030-16.76-111.070-41.114-173.55-41.114-23.398 0-36.198 3.532-41.438 5.922 0.614 34.868 83.456 136.602 138.188 168.21zM358.4-12.8h-204.8v460.8h204.8v-460.8zM358.4 499.2h-256v153.6h256v-153.6zM270.2 765.474c-36.676 21.18-49.288 68.232-28.108 104.908 13.67 23.688 39.22 38.418 66.646 38.418 13.364 0 26.59-3.568 38.264-10.308 54.732-31.608 137.574-133.342 138.172-168.208-5.24-2.39-18.040-5.922-41.438-5.922-62.466-0.002-144.506 24.352-173.536 41.112zM614.4-12.8h-204.8v665.6h204.8v-665.6zM870.4-12.8h-204.8v460.8h204.8v-460.8zM921.6 499.2h-256v153.6h256v-153.6z" />
<glyph unicode="&#xe907;" glyph-name="delivery-truck" d="M837.174 286.612c-25.021 0-48.792-9.8-66.724-27.524-17.932-17.932-27.941-41.285-27.941-66.307s9.8-48.375 27.941-66.307c18.141-17.723 41.702-27.524 66.724-27.524 51.294 0 92.996 42.119 92.996 93.83s-41.702 93.83-92.996 93.83zM837.174 140.654c-28.775 0-52.962 23.77-52.962 52.128s24.187 52.128 52.962 52.128c28.358 0 51.294-23.353 51.294-52.128s-22.936-52.128-51.294-52.128zM861.361 599.171c-3.753 3.545-8.757 5.421-13.97 5.421h-106.966c-11.468 0-20.851-9.383-20.851-20.851v-170.979c0-11.468 9.383-20.851 20.851-20.851h169.728c11.468 0 20.851 9.383 20.851 20.851v114.473c0 5.838-2.502 11.468-6.881 15.43l-62.762 56.507zM889.302 433.613h-128.026v129.486h77.983l50.043-45.038v-84.447zM327.989 286.612c-25.021 0-48.792-9.8-66.724-27.524-17.932-17.932-27.941-41.285-27.941-66.307s9.8-48.375 27.941-66.307c18.141-17.723 41.702-27.524 66.724-27.524 51.294 0 92.996 42.119 92.996 93.83s-41.702 93.83-92.996 93.83zM327.989 140.654c-28.775 0-52.962 23.77-52.962 52.128s24.187 52.128 52.962 52.128c28.358 0 51.294-23.353 51.294-52.128s-22.936-52.128-51.294-52.128zM188.911 260.965h-41.911v55.464c0 11.468-9.383 20.851-20.851 20.851s-20.851-9.383-20.851-20.851v-76.315c0-11.468 9.383-20.851 20.851-20.851h62.762c11.468 0 20.851 9.383 20.851 20.851s-9.383 20.851-20.851 20.851zM294.627 374.604c0 11.468-9.383 20.851-20.851 20.851h-252.924c-11.468 0-20.851-9.383-20.851-20.851s9.383-20.851 20.851-20.851h252.924c11.468 0 20.851 9.175 20.851 20.851zM63.179 449.877l252.924-1.46c11.468 0 20.851 9.175 21.060 20.643 0.209 11.677-9.175 21.060-20.643 21.060l-252.924 1.46c-0.209 0-0.209 0-0.209 0-11.468 0-20.851-9.175-20.851-20.643-0.209-11.677 9.175-21.060 20.643-21.060zM105.715 544.541h252.924c11.468 0 20.851 9.383 20.851 20.851s-9.383 20.851-20.851 20.851h-252.924c-11.468 0-20.851-9.383-20.851-20.851s9.383-20.851 20.851-20.851zM1016.285 572.69v0l-149.294 123.647c-3.753 3.128-8.34 4.796-13.345 4.796h-175.567v75.064c0 11.468-9.383 20.851-20.851 20.851h-531.080c-11.468 0-20.851-9.383-20.851-20.851v-152.63c0-11.468 9.383-20.851 20.851-20.851s20.851 9.383 20.851 20.851v131.779h489.585v-494.381h-170.979c-11.468 0-20.851-9.383-20.851-20.851s9.383-20.851 20.851-20.851h254.593c11.468 0 20.851 9.383 20.851 20.851s-9.383 20.851-20.851 20.851h-41.911v398.465h168.060l135.95-112.596-1.46-285.452h-21.685c-11.468 0-20.851-9.383-20.851-20.851s9.383-20.851 20.851-20.851h42.328c11.468 0 20.851 9.175 20.851 20.643l1.668 316.103c-0.209 6.255-2.919 12.302-7.715 16.264z" />
<glyph unicode="&#xe908;" glyph-name="reload" d="M950.418 800.379l-177.561 149.629c-18.030 15.162-44.94 12.794-60.102-5.238s-12.794-44.94 5.238-60.102l88.031-74.815h-421.708c-133.669-0.148-242-108.479-242.15-242.15v-76.561c0-23.542 19.102-42.644 42.644-42.644s42.644 19.102 42.644 42.644v77.309c0.15 86.585 70.275 156.713 156.863 156.863h421.958l-88.031-74.815c-18.030-15.162-20.4-42.072-5.238-60.102s42.072-20.4 60.102-5.238l177.561 149.631c18.030 15.138 20.4 42.046 5.262 60.076-1.596 1.896-3.366 3.666-5.262 5.262l-0.25 0.252zM837.946 448.249c-23.542 0-42.644-19.102-42.644-42.644v-77.309c-0.15-86.585-70.275-156.713-156.863-156.863h-421.958l88.031 74.815c20.624 11.396 28.106 37.332 16.708 57.958-11.396 20.624-37.332 28.106-57.958 16.708-4.738-2.618-8.952-6.11-12.37-10.324l-177.561-149.631c-18.030-15.138-20.4-42.046-5.262-60.076 1.596-1.896 3.366-3.666 5.262-5.262l177.561-149.629c18.030-15.162 44.94-12.794 60.102 5.238s12.794 44.94-5.238 60.102l-88.031 74.815h420.71c133.669 0.15 242.002 108.481 242.15 242.15v77.305c0.006 23.568-19.098 42.646-42.64 42.646z" />
<glyph unicode="&#xe909;" glyph-name="returning-customer" d="M704.158 447.406l-163.329-164.488c-2.894-3.823-4.633-8.658-4.633-13.9 0-12.796 10.372-23.167 23.167-23.167 5.242 0 10.077 1.741 13.959 4.677l-0.058-0.042 202.714 203.873c4.095 4.176 6.622 9.901 6.622 16.218s-2.526 12.042-6.626 16.221l0.004-0.004-202.714 203.873c-4.272 5.652-10.98 9.268-18.533 9.268-12.796 0-23.167-10.372-23.167-23.167 0-7.553 3.615-14.262 9.208-18.492l0.058-0.042 163.329-164.488h-681.122c-12.796 0-23.167-10.372-23.167-23.167s10.372-23.167 23.167-23.167v0zM884.864 925.814h-456.398c-76.77 0-139.005-62.234-139.005-139.005v0-130.896c0-12.796 10.372-23.167 23.167-23.167s23.167 10.372 23.167 23.167v0 130.896c0 51.181 41.489 92.67 92.67 92.67v0h456.398c51.181 0 92.67-41.489 92.67-92.67v0-644.054c0-51.181-41.489-92.67-92.67-92.67v0h-456.398c-51.181 0-92.67 41.489-92.67 92.67v0 142.481c0 12.796-10.372 23.167-23.167 23.167s-23.167-10.372-23.167-23.167v0-142.481c0-76.77 62.234-139.005 139.005-139.005v0h456.398c76.77 0 139.005 62.234 139.005 139.005v0 644.054c0 76.77-62.234 139.005-139.005 139.005v0z" />
<glyph unicode="&#xe90a;" glyph-name="thumb-down" d="M38.471 339.319h224.415c14.748 0 26.93 8.335 33.984 19.876 47.448-17.312 105.795-44.882 126.314-79.506 44.242-72.455 135.289-291.74 135.932-293.663 5.13-12.824 17.312-21.8 31.417-23.723 1.283 0 8.335-0.64 18.595-0.64 24.366 0 60.913 3.847 93.614 22.442 30.777 17.312 67.324 53.219 67.324 125.031 0 71.171-14.105 137.213-26.93 183.378 14.105-1.283 28.853-2.564 44.882-2.564 84.636 0 148.114 26.289 183.378 76.942 73.095 103.872 53.859 210.308 37.188 303.921-1.283 5.771-1.924 12.182-3.207 17.952-15.388 88.483-36.548 209.027-138.496 226.979-39.754 7.054-128.878 18.595-212.231 18.595-65.401 0-112.849-7.054-143.626-21.8-33.984-16.029-58.99-32.7-78.866-46.165-23.723-16.029-37.831-25.006-51.295-26.289-5.13-0.64-10.901-0.64-17.312-0.64-21.159 0-48.089 1.924-69.888 4.488 0.64 2.564 1.283 5.13 1.283 7.694 1.283 21.159-15.388 39.111-36.548 40.395l-218.002 11.541c-10.901 0.64-20.519-3.207-28.213-10.258-7.696-7.056-12.184-17.314-12.184-28.215v-487.299c0-21.159 17.312-38.471 38.471-38.471zM387.917 763.141c33.341 3.207 58.99 20.519 86.56 39.111 18.595 12.824 40.395 26.93 68.607 40.395 11.541 5.13 41.035 14.748 110.926 14.748 78.225 0 161.578-10.901 198.766-17.952 32.060-5.771 53.219-33.341 76.302-164.142 1.283-6.411 1.924-12.182 3.207-18.595 15.388-86.56 30.136-167.99-24.366-246.215-25.647-36.548-79.506-44.242-119.901-44.242-49.372 0-91.69 10.901-92.331 10.901-14.105 3.847-29.494-0.64-39.111-12.182-9.618-10.901-12.182-26.93-6.411-40.395 0.64-1.283 42.318-102.589 42.318-216.721 0-37.188-16.029-51.295-28.853-57.707-14.105-8.335-31.417-10.901-44.242-12.182-25.006 60.271-92.971 217.361-131.442 280.839-41.678 67.965-147.473 107.079-200.050 123.107v325.078c23.083-2.564 51.295-4.488 75.019-4.488 10.254 0 17.948 0 25.002 0.64zM76.942 824.055l135.289-7.054c-0.64-1.924-0.64-4.488-0.64-6.411v-394.328h-134.649v407.793z" />
<glyph unicode="&#xe90b;" glyph-name="wide-angle-right" d="M335.537 975.763l392.699-507.025-392.699-516.975-39.764 29.823 370.335 487.143-370.335 477.202z" />
<glyph unicode="&#xe90c;" glyph-name="username" d="M1023.86 465.86c0 282.769-229.231 512-512 512s-512-229.231-512-512c0-282.769 229.231-512 512-512s512 229.231 512 512zM40.82 465.86c0 260.148 210.893 471.041 471.041 471.041s471.041-210.893 471.041-471.041c0-260.148-210.893-471.041-471.041-471.041s-471.041 210.893-471.041 471.041zM511.86 363.461c-124.419 0-225.281 100.861-225.281 225.281s100.861 225.281 225.281 225.281c124.419 0 225.281-100.861 225.281-225.281s-100.861-225.281-225.281-225.281zM511.86 404.42c101.798 0 184.32 82.522 184.32 184.32s-82.522 184.32-184.32 184.32c-101.798 0-184.32-82.522-184.32-184.32s82.522-184.32 184.32-184.32zM368.499 240.581h286.721c94.948 0 163.068-31.941 205.694-85.227 7.065-8.833 19.954-10.264 28.786-3.2s10.264 19.954 3.2 28.786c-50.492 63.119-130.429 100.601-237.68 100.601h-286.721c-107.251 0-187.188-37.482-237.68-100.601-7.065-8.833-5.633-21.72 3.2-28.786s21.72-5.633 28.786 3.2c42.627 53.286 110.746 85.227 205.694 85.227z" />
<glyph unicode="&#xe90d;" glyph-name="cog" d="M933.79 349.75c-53.726 93.054-21.416 212.304 72.152 266.488l-100.626 174.292c-28.75-16.854-62.176-26.518-97.846-26.518-107.536 0-194.708 87.746-194.708 195.99h-201.258c0.266-33.41-8.074-67.282-25.958-98.252-53.724-93.056-173.156-124.702-266.862-70.758l-100.624-174.292c28.97-16.472 54.050-40.588 71.886-71.478 53.638-92.908 21.512-211.92-71.708-266.224l100.626-174.292c28.65 16.696 61.916 26.254 97.4 26.254 107.196 0 194.144-87.192 194.7-194.958h201.254c-0.086 33.074 8.272 66.57 25.966 97.218 53.636 92.906 172.776 124.594 266.414 71.012l100.626 174.29c-28.78 16.466-53.692 40.498-71.434 71.228zM512 240.668c-114.508 0-207.336 92.824-207.336 207.334 0 114.508 92.826 207.334 207.336 207.334 114.508 0 207.332-92.826 207.332-207.334-0.002-114.51-92.824-207.334-207.332-207.334z" />
<glyph unicode="&#xe90e;" glyph-name="grid" d="M735.051 136.205v288.821h288.821v-288.821h-288.821zM735.051 792.615h288.821v-288.821h-288.821v288.821zM367.462 425.026h288.821v-288.821h-288.821v288.821zM367.462 792.615h288.821v-288.821h-288.821v288.821zM-0.128 425.026h288.821v-288.821h-288.821v288.821zM-0.128 792.615h288.821v-288.821h-288.821v288.821z" />
<glyph unicode="&#xe90f;" glyph-name="list" d="M367.462 136.205v288.821h656.41v-288.821h-656.41zM367.462 792.615h656.41v-288.821h-656.41v288.821zM-0.128 425.026h288.821v-288.821h-288.821v288.821zM-0.128 792.615h288.821v-288.821h-288.821v288.821z" />
<glyph unicode="&#xe910;" glyph-name="user-pass" d="M511.875 976c-282.624 0-512-229.376-512-512s229.376-512 512-512c282.624 0 512 229.376 512 512s-229.376 512-512 512zM511.875-10.112c-261.12 0-474.112 212.992-474.112 474.112s212.992 474.112 474.112 474.112 474.112-212.992 474.112-474.112-212.992-474.112-474.112-474.112zM655.235 617.6c0 78.847-64.512 143.36-143.36 143.36s-143.36-64.512-143.36-143.36v-58.367h-54.272v-335.872h394.24v335.872h-53.247v58.367zM406.403 617.6c0 58.367 47.104 105.472 105.472 105.472s105.472-47.104 105.472-105.472v-58.367h-210.944v58.367zM671.619 521.344v-260.096h-319.487v260.096h319.487zM492.419 376.96v-40.96c0-10.24 8.192-19.456 19.456-19.456s19.456 8.192 19.456 19.456v40.96c15.36 7.167 25.6 22.527 25.6 39.936 0 24.576-19.456 44.032-44.032 44.032s-44.032-19.456-44.032-44.032c-1.024-17.407 9.216-32.767 23.552-39.936z" />
<glyph unicode="&#xe911;" glyph-name="thumb-up" d="M53.647 531.38c-74.189-106.358-55.149-214.685-38.078-309.882 1.314-6.565 2.625-13.131 3.283-19.696 15.757-90.601 37.422-214.030 142.466-232.412 40.706-7.223 131.963-19.040 217.311-19.040 66.966 0 115.55 7.223 147.064 22.321 38.078 17.726 62.371 36.766 82.067 51.865 19.040 14.443 28.23 21.010 39.392 22.321 4.595 0.656 9.848 0.656 16.412 0.656 25.605 0 57.118-3.283 77.47-5.909-3.939-5.909-5.909-13.131-5.909-21.010 0-21.666 17.726-38.736 39.392-38.736v0l210.091 0.656c21.666 0 39.392 17.071 39.392 38.736v472.702c0 21.666-17.726 39.392-39.392 39.392h-203.524c-8.534 0-15.757-2.625-22.321-6.565-45.956 14.443-128.679 48.584-156.254 93.227-45.301 73.531-131.963 298.064-132.618 300.034-5.253 13.787-17.726 22.979-32.169 24.949-1.314 0-8.534 0.656-19.040 0.656-119.489 0-162.162-78.128-162.162-151.003s14.443-140.497 28.23-187.111c-13.787 1.314-28.888 1.97-44.645 1.97-85.351 0.663-150.347-26.912-186.458-78.121zM945.872 60.647l-141.811-0.656c2.625 5.253 3.939 11.162 3.939 17.071v377.504h137.871v-393.918zM118.644 486.079c26.26 37.422 80.753 45.301 122.77 45.301 49.896 0 93.227-11.162 93.885-11.162 14.443-3.939 30.2 0.656 40.048 12.473 9.848 11.162 12.473 27.574 6.565 41.361-0.656 1.314-44.645 104.388-44.645 221.25 0 38.736 16.412 52.523 28.23 59.744 13.787 7.878 29.544 11.162 42.017 11.818 24.949-62.371 89.287-222.564 129.337-287.56 42.017-68.936 141.811-108.983 193.020-125.398v-331.547c-28.888 3.283-66.31 5.253-89.945 3.283-34.139-3.283-56.462-20.352-79.439-38.736-17.071-13.131-36.766-28.23-66.966-42.675-11.818-5.253-42.017-15.101-113.581-15.101-80.098 0-165.446 11.162-203.524 17.726-42.675 7.223-60.402 64.997-78.128 168.071-1.314 6.565-2.625 13.131-3.283 19.696-17.064 88.636-32.165 172.015 23.64 251.457z" />
<glyph unicode="&#xe912;" glyph-name="reply-arrow" d="M397.279 157.63c8.013-6.41 17.626-8.013 27.242-3.202s14.423 12.82 14.423 22.437v166.658c160.248 0 407.035-12.82 536.838-241.976 4.807-8.013 12.82-12.82 22.437-12.82 1.603 0 4.807 0 6.41 1.603 11.215 3.202 19.229 12.82 19.229 24.036 0 86.534-32.049 217.94-124.997 330.113-73.714 89.741-213.135 197.108-459.916 205.122v168.262c0 9.616-6.41 19.229-14.423 22.437-9.616 4.807-19.229 3.202-27.242-3.202l-387.805-320.501c-6.41-4.807-9.616-12.82-9.616-19.229 0-8.013 3.202-14.423 9.616-19.229l387.805-320.501zM387.666 763.371v-137.816c0-14.423 11.215-25.639 25.639-25.639 368.576-3.202 506.388-227.552 546.45-386.202-158.649 181.082-395.818 181.082-544.851 181.082v0c-6.41 0-12.82-3.202-17.626-8.013s-8.013-11.215-8.013-17.626v-137.816l-322.104 266.016 320.501 266.016z" />
<glyph unicode="&#xe913;" glyph-name="settings" d="M972.512 554.24l-98.048 19.648c-4.928 14.176-10.752 27.936-17.184 41.248l55.552 83.328c16.928 25.376 13.568 59.2-8 80.736l-61.568 61.568c-12.384 12.384-28.736 18.752-45.312 18.752-12.256 0-24.64-3.52-35.424-10.752l-83.328-55.52c-13.376 6.464-27.136 12.224-41.312 17.152l-19.648 98.080c-5.952 29.952-32.256 51.456-62.752 51.456h-87.040c-30.496 0-56.768-21.536-62.752-51.456l-19.648-98.080c-14.176-4.928-27.936-10.72-41.248-17.152l-83.296 55.52c-10.848 7.232-23.2 10.752-35.488 10.752-16.544 0-32.896-6.368-45.28-18.752l-61.536-61.568c-21.568-21.568-24.928-55.36-8-80.736l55.52-83.328c-6.464-13.344-12.224-27.104-17.152-41.28l-98.112-19.616c-29.92-5.984-51.456-32.256-51.456-62.752v-87.040c0-30.496 21.536-56.8 51.456-62.752l98.080-19.68c4.928-14.176 10.72-27.936 17.152-41.248l-55.488-83.328c-16.928-25.376-13.568-59.2 8-80.736l61.568-61.568c12.384-12.384 28.736-18.752 45.28-18.752 12.288 0 24.672 3.552 35.456 10.752l83.328 55.552c13.344-6.496 27.104-12.256 41.28-17.184l19.616-98.048c5.984-29.952 32.256-51.488 62.752-51.488h87.040c30.496 0 56.8 21.568 62.752 51.488l19.68 98.048c14.176 4.928 27.936 10.752 41.248 17.184l83.328-55.552c10.816-7.2 23.2-10.752 35.424-10.752 16.576 0 32.928 6.368 45.312 18.752l61.568 61.568c21.568 21.568 24.928 55.36 8 80.736l-55.552 83.328c6.496 13.376 12.256 27.136 17.184 41.312l98.048 19.616c29.92 5.92 51.488 32.256 51.488 62.752v87.040c0 30.496-21.568 56.768-51.488 62.752zM861.888 384.8c-22.24-4.448-40.448-20.32-47.872-41.76-4.128-11.808-8.928-23.264-14.304-34.368-9.952-20.448-8.256-44.576 4.32-63.424l55.552-83.328-61.568-61.568-83.328 55.552c-10.688 7.136-23.072 10.752-35.488 10.752-9.504 0-19.072-2.112-27.872-6.368-11.136-5.376-22.56-10.24-34.432-14.368-21.376-7.424-37.248-25.632-41.696-47.872l-19.68-98.112h-87.040l-19.616 98.112c-4.448 22.24-20.32 40.448-41.728 47.872-11.808 4.128-23.296 8.928-34.4 14.304-8.832 4.32-18.368 6.432-27.904 6.432-12.448 0-24.8-3.616-35.488-10.752l-83.328-55.552-61.568 61.568 55.52 83.328c12.576 18.88 14.208 43.008 4.384 63.36-5.376 11.136-10.208 22.56-14.336 34.432-7.424 21.376-25.664 37.248-47.872 41.696l-98.080 19.68-0.064 87.072 98.112 19.616c22.208 4.448 40.448 20.32 47.872 41.728 4.128 11.808 8.896 23.296 14.304 34.4 9.92 20.416 8.256 44.544-4.352 63.392l-55.488 83.328 61.536 61.568 83.328-55.52c10.688-7.136 23.072-10.752 35.488-10.752 9.504 0 19.040 2.112 27.872 6.368 11.104 5.376 22.56 10.208 34.4 14.336 21.408 7.424 37.28 25.664 41.728 47.872l19.648 98.080 87.040 0.032 19.616-98.112c4.448-22.208 20.32-40.448 41.76-47.872 11.808-4.128 23.264-8.896 34.368-14.304 8.864-4.288 18.368-6.4 27.936-6.4 12.448 0 24.8 3.616 35.488 10.752l83.328 55.52 61.568-61.568-55.552-83.328c-12.576-18.88-14.176-42.976-4.384-63.36 5.376-11.104 10.24-22.56 14.368-34.4 7.424-21.408 25.632-37.28 47.872-41.728l98.048-19.648 0.096-87.040-98.112-19.648zM512 671.968c-123.68 0-224-100.32-224-224 0-123.712 100.32-224 224-224s224 100.32 224 224c0 123.68-100.32 224-224 224zM512 251.936c-108.224 0-196 87.808-196 196 0 108.224 87.776 196 196 196 108.192 0 196-87.776 196-196 0-108.192-87.808-196-196-196zM512 575.968c-70.72 0-128-57.28-128-128 0-70.688 57.28-128 128-128 70.688 0 128 57.312 128 128s-57.312 128-128 128zM512 351.936c-52.992 0-96 43.008-96 96s43.008 96 96 96 96-43.008 96-96c0-52.992-43.008-96-96-96z" />
<glyph unicode="&#xe914;" glyph-name="user-mail" d="M511.878 975.61c-282.638 0-512-229.365-512-512s229.362-512 512-512c282.634 0 512 229.365 512 512s-229.366 512-512 512zM511.878 952.854c270.337 0 489.244-218.906 489.244-489.244s-218.907-489.244-489.244-489.244c-270.34 0-489.244 218.906-489.244 489.244s218.904 489.244 489.244 489.244zM193.3 691.166c-18.713 0-34.134-15.421-34.134-34.134v-386.844c0-18.713 15.421-34.134 34.134-34.134h637.156c18.713 0 34.134 15.421 34.134 34.134v386.844c0 18.713-15.421 34.134-34.134 34.134h-637.156zM201.834 668.41h620.088l-310.044-269.156-310.044 269.156zM181.922 655.61l215.112-187.022-215.112-194.488v381.512zM841.834 655.61v-381.512l-215.112 194.488 215.112 187.022zM414.1 454.010l90.313-78.578c1.985-1.735 4.602-2.793 7.466-2.793s5.479 1.057 7.479 2.802l-0.015-0.012 90.313 78.578 215.822-195.2h-627.2l215.822 195.2z" />
<glyph unicode="&#xe915;" glyph-name="calendar" d="M230.034 507.48h62.186v-41.801h-62.186v41.801zM230.034 331.645h62.186v-41.801h-62.186v41.801zM230.034 155.694h62.186v-41.801h-62.186v41.801zM478.38 507.48h62.186v-41.801h-62.186v41.801zM478.38 331.645h62.186v-41.801h-62.186v41.801zM478.38 155.694h62.186v-41.801h-62.186v41.801zM726.729 507.48h62.186v-41.801h-62.186v41.801zM726.729 331.645h62.186v-41.801h-62.186v41.801zM726.729 155.694h62.186v-41.801h-62.186v41.801zM894.258 900.773v39.233c0 19.856-16.162 36.018-36.018 36.018h-29.796c-19.856 0-36.018-16.162-36.018-36.018v-38.453h-232.045v38.453c0 19.856-16.162 36.018-36.018 36.018h-29.781c-19.856 0-36.018-16.162-36.018-36.018v-38.453h-232.045v38.453c0 19.856-16.162 36.018-36.018 36.018h-29.796c-19.856 0-36.018-16.162-36.018-36.018v-39.926c-50.035-8.122-87.581-51.115-87.581-103.213v-740.167c0-57.718 46.973-104.676 104.676-104.676h740.182c57.718 0 104.676 46.973 104.676 104.676v740.167c0.015 53.56-40.446 97.797-92.381 103.906zM819.791 940.001c0 4.784 3.883 8.667 8.667 8.667h29.796c4.784 0 8.667-3.883 8.667-8.667v-104.253c0-4.784-3.883-8.667-8.667-8.667h-29.796c-4.784 0-8.667 3.883-8.667 8.667v104.253zM485.931 940.001c0 4.784 3.883 8.667 8.667 8.667h29.781c4.784 0 8.667-3.883 8.667-8.667v-104.253c0-4.784-3.883-8.667-8.667-8.667h-29.781c-4.784 0-8.667 3.883-8.667 8.667v104.253zM152.054 940.001c0 4.784 3.883 8.667 8.667 8.667h29.796c4.784 0 8.667-3.883 8.667-8.667v-104.253c0-4.784-3.883-8.667-8.667-8.667h-29.796c-4.784 0-8.667 3.883-8.667 8.667v104.253zM124.708 872.234v-36.496c0-19.856 16.162-36.018 36.018-36.018h29.796c19.856 0 36.018 16.162 36.018 36.018v38.463h232.060v-38.463c0-19.856 16.162-36.018 36.018-36.018h29.781c19.856 0 36.018 16.162 36.018 36.018v38.463h232.060v-38.463c0-19.856 16.162-36.018 36.018-36.018h29.796c19.856 0 36.018 16.162 36.018 36.018v37.398c36.813-5.92 65.045-37.806 65.045-76.275v-133.060h-894.887v133.060c0 36.919 25.526 67.618 60.246 75.373zM881.968-20.635h-740.167c-42.637 0-77.325 34.693-77.325 77.325v579.745h894.837v-579.745c0-42.637-34.693-77.325-77.34-77.325z" />
<glyph unicode="&#xe916;" glyph-name="cupon" d="M273.954 632.723c-6.473 0-10.791-5.395-10.791-10.791v-45.318c0-6.473 5.395-10.791 10.791-10.791 6.473 0 10.791 5.395 10.791 10.791v45.318c0 6.473-5.395 10.791-10.791 10.791zM273.954 270.169c-6.473 0-10.791-5.395-10.791-10.791v-45.318c0-6.473 5.395-10.791 10.791-10.791 6.473 0 10.791 5.395 10.791 10.791v45.318c0 6.473-5.395 10.791-10.791 10.791zM273.954 542.085c-6.473 0-10.791-5.395-10.791-10.791v-45.318c0-6.473 5.395-10.791 10.791-10.791 6.473 0 10.791 5.395 10.791 10.791v45.318c0 6.473-5.395 10.791-10.791 10.791zM273.954 723.362c-6.473 0-10.791-5.395-10.791-10.791v-45.318c0-6.473 5.395-10.791 10.791-10.791 6.473 0 10.791 5.395 10.791 10.791v45.318c0 6.473-5.395 10.791-10.791 10.791zM273.954 451.447c-6.473 0-10.791-5.395-10.791-10.791v-45.318c0-6.473 5.395-10.791 10.791-10.791 6.473 0 10.791 5.395 10.791 10.791v45.318c0 6.473-5.395 10.791-10.791 10.791zM273.954 360.808c-6.473 0-10.791-5.395-10.791-10.791v-45.318c0-6.473 5.395-10.791 10.791-10.791 6.473 0 10.791 5.395 10.791 10.791v45.318c0 6.473-5.395 10.791-10.791 10.791zM1004.457 567.981h8.633c6.473 0 10.791 5.395 10.791 10.791v208.253c0 6.473-5.395 10.791-10.791 10.791h-1002.419c-6.473 0-10.791-5.395-10.791-10.791v-208.253c0-6.473 5.395-10.791 10.791-10.791h8.633c58.267 0 104.665-47.478 104.665-104.665 0-58.267-47.478-104.665-104.665-104.665h-8.633c-6.473 0-10.791-5.395-10.791-10.791v-208.253c0-6.473 5.395-10.791 10.791-10.791h1002.419c6.473 0 10.791 5.395 10.791 10.791v208.253c0 6.473-5.395 10.791-10.791 10.791h-8.633c-58.267 0-104.665 47.478-104.665 104.665 0 58.267 47.478 104.665 104.665 104.665zM307.403 150.398h-21.581v18.343c0 6.473-5.395 10.791-10.791 10.791-6.473 0-10.791-5.395-10.791-10.791v-18.343h-240.625v185.593c69.058 1.079 125.167 57.189 125.167 127.327 0 69.058-56.109 126.246-125.167 127.327v185.593h239.544v-18.343c0-6.473 5.395-10.791 10.791-10.791 6.473 0 10.791 5.395 10.791 10.791v18.343h716.477v-185.593c-69.058-1.079-125.167-57.189-125.167-127.327 0-69.058 56.109-126.246 125.167-127.327v-185.593h-693.817zM731.463 641.356c-1.079 3.238-2.157 5.395-5.395 7.553-5.395 3.238-11.869 1.079-15.107-4.316l-202.858-352.843c-3.238-5.395-1.079-11.869 4.316-15.107 2.157-1.079 3.238-1.079 5.395-1.079 3.238 0 7.553 2.157 9.711 5.395l2.157 3.238 200.699 349.606c1.079 2.157 1.079 5.395 1.079 7.553zM550.186 477.344c33.45 5.395 60.425 31.292 64.742 64.742 1.079 3.238 1.079 7.553 1.079 10.791 0 4.316-1.079 7.553-1.079 10.791-5.395 33.45-31.292 60.425-64.742 64.742-3.238 0-7.553 1.079-10.791 1.079-43.161 0-77.69-34.529-77.69-77.69s34.529-77.69 77.69-77.69c3.238 2.157 6.473 3.238 10.791 3.238zM484.364 543.164c-1.079 3.238-1.079 7.553-1.079 10.791 0 4.316 0 7.553 1.079 10.791 5.395 24.818 26.976 44.24 53.951 44.24 3.238 0 7.553 0 10.791-1.079 24.818-5.395 44.24-26.976 44.24-53.951s-19.422-48.556-44.24-53.951c-3.238-1.079-7.553-1.079-10.791-1.079-25.897 0-48.556 18.343-53.951 44.24zM731.463 449.287c-3.238 0-7.553 1.079-10.791 1.079-43.161 0-77.69-34.529-77.69-77.69s34.529-77.69 77.69-77.69c3.238 0 7.553 1.079 10.791 1.079 33.45 5.395 60.425 31.292 64.742 64.742 0 3.238 1.079 7.553 1.079 10.791 0 4.316-1.079 7.553-1.079 10.791-4.316 35.608-31.292 61.504-64.742 66.899zM731.463 318.725c-3.238-1.079-7.553-1.079-10.791-1.079-26.976 0-48.556 19.422-53.951 44.24-1.079 3.238-1.079 7.553-1.079 10.791 0 4.316 0 7.553 1.079 10.791 5.395 24.818 26.976 44.24 53.951 44.24 3.238 0 7.553 0 10.791-1.079 24.818-5.395 44.24-26.976 44.24-53.951s-19.422-48.556-44.24-53.951z" />
<glyph unicode="&#xe917;" glyph-name="check" d="M927.56 840.758l-561.98-560.762-269.409 268.191-96.305-96.305 318.17-316.952 47.544-45.104 47.544 45.104 610.743 610.743z" />
<glyph unicode="&#xe918;" glyph-name="add-to-cart" d="M983.633 709.915l-109.658-358.532c-0.133-0.427-0.52-0.716-0.968-0.716h-543.453l-105.538 360.556h189.65c0.003-0.023 0.004-0.044 0.008-0.066 0.024-0.235 0.054-0.466 0.079-0.701 0.144-1.371 0.297-2.739 0.47-4.1 0.073-0.569 0.159-1.128 0.233-1.692 0.14-1.029 0.277-2.060 0.433-3.083 0.099-0.649 0.209-1.289 0.313-1.934 0.15-0.933 0.299-1.867 0.463-2.797 0.123-0.69 0.255-1.374 0.386-2.061 0.164-0.882 0.329-1.758 0.506-2.636 0.14-0.705 0.293-1.408 0.442-2.108 0.18-0.852 0.366-1.702 0.559-2.547 0.16-0.715 0.332-1.428 0.502-2.138 0.197-0.829 0.397-1.657 0.605-2.48 0.183-0.716 0.372-1.435 0.56-2.15 0.215-0.809 0.432-1.618 0.659-2.426 0.199-0.716 0.403-1.432 0.61-2.144 0.233-0.799 0.472-1.597 0.713-2.391 0.217-0.713 0.437-1.425 0.663-2.137 0.25-0.789 0.508-1.574 0.766-2.356 0.235-0.709 0.47-1.414 0.709-2.117 0.271-0.782 0.549-1.558 0.825-2.335 0.25-0.699 0.502-1.395 0.756-2.092 0.289-0.773 0.582-1.542 0.882-2.309 0.267-0.689 0.53-1.379 0.802-2.066 0.309-0.773 0.629-1.54 0.948-2.311 0.276-0.669 0.549-1.339 0.832-2.006 0.336-0.785 0.683-1.564 1.028-2.345 0.283-0.64 0.56-1.289 0.853-1.927 0.369-0.815 0.755-1.624 1.138-2.433 0.279-0.595 0.55-1.192 0.838-1.785 0.59-1.221 1.199-2.433 1.814-3.645 0.342-0.67 0.695-1.335 1.045-2.001 0.443-0.845 0.882-1.692 1.338-2.532 0.337-0.62 0.686-1.237 1.032-1.857 0.407-0.729 0.809-1.46 1.222-2.187 0.367-0.64 0.746-1.272 1.121-1.911 0.41-0.69 0.813-1.385 1.229-2.072 0.387-0.645 0.787-1.282 1.186-1.921 0.413-0.67 0.829-1.339 1.251-2.004 0.406-0.639 0.822-1.272 1.237-1.905 0.427-0.656 0.858-1.313 1.292-1.964 0.42-0.629 0.849-1.252 1.279-1.877 0.442-0.645 0.885-1.287 1.333-1.924 0.44-0.625 0.883-1.241 1.329-1.86 0.453-0.629 0.909-1.255 1.369-1.877 0.456-0.612 0.913-1.225 1.375-1.835 0.466-0.615 0.936-1.227 1.409-1.839 0.47-0.602 0.939-1.202 1.415-1.801 0.482-0.606 0.966-1.207 1.454-1.807 0.482-0.59 0.962-1.179 1.449-1.763 0.498-0.599 1.002-1.189 1.505-1.781 0.492-0.576 0.982-1.152 1.48-1.725 0.513-0.586 1.036-1.169 1.556-1.751 0.502-0.56 1.002-1.122 1.512-1.681 0.534-0.585 1.078-1.162 1.622-1.743 0.502-0.536 1.004-1.078 1.514-1.611 0.564-0.589 1.141-1.171 1.712-1.753 0.502-0.51 0.999-1.028 1.508-1.534 0.61-0.61 1.235-1.211 1.855-1.814 0.48-0.463 0.952-0.933 1.435-1.395 0.889-0.845 1.791-1.678 2.693-2.507 0.605-0.552 1.211-1.098 1.819-1.642 0.743-0.663 1.482-1.328 2.233-1.981 0.51-0.442 1.028-0.873 1.544-1.313 0.655-0.556 1.308-1.118 1.97-1.667 0.544-0.45 1.096-0.889 1.642-1.334 0.646-0.524 1.291-1.048 1.941-1.564 0.564-0.446 1.135-0.883 1.707-1.323 0.646-0.5 1.291-1.002 1.944-1.494 0.585-0.437 1.171-0.868 1.757-1.299 0.65-0.48 1.303-0.959 1.96-1.429 0.596-0.43 1.199-0.852 1.798-1.272 0.66-0.462 1.325-0.926 1.991-1.379 0.602-0.412 1.211-0.822 1.821-1.227 0.673-0.448 1.349-0.895 2.030-1.338 0.615-0.4 1.231-0.793 1.849-1.186 0.685-0.432 1.371-0.862 2.060-1.285 0.625-0.387 1.252-0.771 1.881-1.148 0.696-0.417 1.395-0.829 2.094-1.241 0.635-0.367 1.267-0.739 1.904-1.101 0.711-0.406 1.425-0.803 2.14-1.196 0.636-0.353 1.275-0.706 1.914-1.055 0.733-0.393 1.474-0.779 2.213-1.166 0.629-0.329 1.257-0.66 1.89-0.982 0.769-0.392 1.542-0.771 2.313-1.152 0.62-0.303 1.237-0.612 1.855-0.909 0.812-0.392 1.628-0.765 2.443-1.145 0.592-0.273 1.181-0.552 1.775-0.822 0.918-0.413 1.844-0.812 2.767-1.212 0.502-0.217 0.999-0.442 1.502-0.653 1.411-0.599 2.833-1.179 4.261-1.747 0.233-0.090 0.468-0.177 0.703-0.267 1.235-0.483 2.471-0.958 3.718-1.415 0.539-0.199 1.080-0.386 1.621-0.579 0.932-0.333 1.865-0.669 2.807-0.989 0.616-0.21 1.237-0.41 1.857-0.612 0.868-0.287 1.738-0.575 2.614-0.849 0.655-0.209 1.315-0.402 1.974-0.602 0.849-0.257 1.697-0.513 2.552-0.761 0.673-0.195 1.351-0.377 2.030-0.564 0.843-0.233 1.687-0.468 2.537-0.689 0.689-0.18 1.379-0.353 2.070-0.529 0.848-0.21 1.692-0.42 2.542-0.62 0.7-0.164 1.404-0.323 2.107-0.482 0.849-0.19 1.698-0.377 2.552-0.559 0.709-0.149 1.415-0.291 2.127-0.433 0.853-0.17 1.712-0.336 2.572-0.493 0.715-0.133 1.432-0.263 2.148-0.387 0.863-0.149 1.731-0.293 2.596-0.432 0.719-0.114 1.434-0.227 2.153-0.333 0.875-0.13 1.757-0.253 2.636-0.369 0.716-0.099 1.432-0.195 2.15-0.286 0.898-0.11 1.797-0.21 2.696-0.307 0.706-0.079 1.409-0.159 2.118-0.229 0.929-0.093 1.861-0.17 2.795-0.249 0.686-0.058 1.369-0.12 2.056-0.173 0.982-0.073 1.97-0.129 2.956-0.187 0.645-0.038 1.281-0.083 1.924-0.114 1.101-0.054 2.207-0.090 3.311-0.126 0.534-0.018 1.066-0.044 1.602-0.058 1.642-0.040 3.291-0.063 4.946-0.063 1.652 0 3.301 0.023 4.943 0.063 0.536 0.014 1.068 0.040 1.602 0.058 1.105 0.036 2.211 0.073 3.311 0.126 0.642 0.033 1.279 0.076 1.924 0.114 0.986 0.058 1.974 0.114 2.956 0.187 0.686 0.053 1.369 0.114 2.056 0.173 0.933 0.079 1.867 0.157 2.795 0.249 0.709 0.070 1.414 0.15 2.118 0.229 0.899 0.096 1.801 0.197 2.696 0.307 0.719 0.090 1.434 0.187 2.15 0.286 0.882 0.116 1.761 0.239 2.639 0.369 0.716 0.106 1.434 0.219 2.15 0.333 0.868 0.139 1.733 0.283 2.596 0.432 0.716 0.124 1.434 0.255 2.148 0.387 0.859 0.159 1.718 0.323 2.574 0.493 0.709 0.143 1.418 0.286 2.124 0.433 0.853 0.18 1.702 0.367 2.554 0.559 0.7 0.159 1.404 0.317 2.104 0.482 0.849 0.2 1.695 0.41 2.542 0.62 0.69 0.174 1.384 0.347 2.070 0.529 0.852 0.22 1.695 0.456 2.537 0.689 0.679 0.187 1.358 0.369 2.031 0.564 0.853 0.247 1.701 0.503 2.55 0.761 0.659 0.2 1.319 0.393 1.975 0.602 0.873 0.276 1.745 0.562 2.613 0.849 0.62 0.203 1.242 0.402 1.857 0.612 0.942 0.322 1.875 0.656 2.809 0.989 0.539 0.193 1.082 0.379 1.618 0.579 1.247 0.458 2.486 0.932 3.718 1.415 0.235 0.093 0.47 0.179 0.705 0.269 1.425 0.564 2.845 1.146 4.254 1.743 0.51 0.215 1.012 0.442 1.52 0.663 0.919 0.397 1.841 0.793 2.753 1.205 0.595 0.269 1.182 0.549 1.775 0.822 0.815 0.379 1.632 0.753 2.443 1.145 0.62 0.297 1.235 0.606 1.855 0.909 0.773 0.382 1.544 0.761 2.313 1.152 0.635 0.322 1.261 0.653 1.891 0.982 0.736 0.387 1.478 0.773 2.211 1.166 0.64 0.347 1.277 0.701 1.914 1.055 0.715 0.393 1.429 0.792 2.14 1.196 0.636 0.362 1.271 0.733 1.904 1.101 0.7 0.412 1.398 0.823 2.094 1.241 0.629 0.377 1.257 0.761 1.881 1.148 0.689 0.423 1.375 0.853 2.060 1.285 0.619 0.393 1.235 0.787 1.851 1.186 0.68 0.442 1.355 0.889 2.028 1.338 0.61 0.406 1.219 0.815 1.824 1.227 0.666 0.453 1.329 0.918 1.99 1.379 0.602 0.422 1.202 0.843 1.798 1.272 0.656 0.47 1.309 0.949 1.96 1.429 0.586 0.432 1.172 0.862 1.757 1.299 0.653 0.492 1.298 0.994 1.945 1.494 0.57 0.44 1.141 0.878 1.705 1.323 0.65 0.516 1.295 1.040 1.941 1.564 0.549 0.443 1.098 0.883 1.642 1.334 0.665 0.549 1.315 1.111 1.97 1.667 0.516 0.44 1.036 0.872 1.544 1.313 0.751 0.655 1.492 1.319 2.233 1.981 0.609 0.544 1.215 1.091 1.819 1.642 0.902 0.829 1.803 1.662 2.693 2.507 0.483 0.462 0.956 0.932 1.438 1.395 0.619 0.602 1.242 1.202 1.854 1.814 0.508 0.506 1.006 1.024 1.508 1.534 0.574 0.582 1.148 1.165 1.712 1.753 0.51 0.532 1.012 1.075 1.514 1.611 0.544 0.58 1.088 1.158 1.622 1.743 0.51 0.559 1.009 1.121 1.512 1.681 0.52 0.582 1.042 1.165 1.556 1.751 0.498 0.572 0.988 1.148 1.48 1.725 0.503 0.592 1.008 1.182 1.505 1.781 0.488 0.585 0.969 1.172 1.449 1.763 0.488 0.6 0.972 1.201 1.454 1.807 0.476 0.599 0.946 1.199 1.418 1.801 0.472 0.612 0.942 1.225 1.409 1.839 0.46 0.61 0.919 1.222 1.374 1.835 0.46 0.622 0.916 1.249 1.369 1.877 0.447 0.619 0.889 1.235 1.329 1.86 0.45 0.636 0.892 1.279 1.333 1.924 0.43 0.625 0.859 1.249 1.279 1.877 0.437 0.65 0.865 1.308 1.292 1.964 0.416 0.632 0.832 1.267 1.239 1.905 0.42 0.665 0.835 1.334 1.251 2.004 0.397 0.639 0.797 1.277 1.185 1.921 0.416 0.686 0.822 1.381 1.229 2.072 0.373 0.639 0.753 1.271 1.121 1.911 0.413 0.726 0.817 1.458 1.225 2.187 0.346 0.62 0.693 1.237 1.029 1.857 0.456 0.839 0.895 1.687 1.338 2.532 0.349 0.666 0.703 1.331 1.045 2.001 0.616 1.211 1.222 2.423 1.814 3.645 0.287 0.592 0.56 1.191 0.838 1.785 0.386 0.809 0.769 1.618 1.141 2.433 0.291 0.642 0.572 1.295 0.855 1.94 0.343 0.775 0.689 1.548 1.022 2.329 0.287 0.67 0.56 1.349 0.842 2.024 0.313 0.765 0.632 1.528 0.939 2.297 0.273 0.685 0.534 1.378 0.802 2.066 0.299 0.766 0.592 1.535 0.882 2.309 0.257 0.696 0.508 1.394 0.756 2.092 0.277 0.776 0.554 1.554 0.825 2.335 0.239 0.703 0.473 1.408 0.709 2.117 0.259 0.782 0.516 1.566 0.766 2.356 0.225 0.711 0.446 1.424 0.663 2.137 0.24 0.795 0.482 1.592 0.713 2.391 0.207 0.713 0.412 1.428 0.61 2.144 0.227 0.807 0.443 1.617 0.66 2.426 0.187 0.715 0.376 1.434 0.559 2.15 0.207 0.823 0.407 1.651 0.606 2.48 0.17 0.711 0.342 1.424 0.502 2.138 0.19 0.845 0.376 1.697 0.556 2.547 0.149 0.701 0.301 1.404 0.443 2.108 0.177 0.878 0.342 1.755 0.506 2.636 0.129 0.689 0.261 1.371 0.383 2.061 0.164 0.929 0.313 1.864 0.463 2.797 0.104 0.645 0.215 1.285 0.313 1.934 0.157 1.024 0.293 2.054 0.436 3.083 0.074 0.564 0.16 1.125 0.23 1.692 0.173 1.361 0.326 2.729 0.47 4.1 0.024 0.235 0.056 0.466 0.079 0.701 0.004 0.023 0.006 0.044 0.008 0.066h175.732c0.189 0 0.508 0 0.813-0.41 0.301-0.41 0.207-0.715 0.153-0.898zM610.302 888.795c86.841 0 157.489-70.651 157.489-157.494s-70.648-157.494-157.489-157.494c-86.841 0-157.492 70.651-157.492 157.494s70.65 157.494 157.492 157.494zM868.445 101.072c0-34.080-27.726-61.806-61.802-61.806-34.081 0-61.806 27.726-61.806 61.806s27.726 61.806 61.806 61.806c34.076 0 61.802-27.726 61.802-61.806zM454.227 101.072c0-34.080-27.724-61.806-61.802-61.806s-61.802 27.726-61.802 61.806c0 34.080 27.724 61.806 61.802 61.806s61.802-27.726 61.802-61.806zM1015.762 734.695c-7.844 10.603-19.907 16.683-33.094 16.683h-175.734c-10.091 99.591-94.426 177.573-196.631 177.573s-186.542-77.982-196.634-177.573h-201.405l-45.161 154.284c-2.506 8.558-10.354 14.438-19.268 14.438h-127.882c-11.086 0-20.078-8.989-20.078-20.079s8.991-20.079 20.078-20.079h112.838l45.16-154.275c0-0.003 0-0.004 0.003-0.008l117.292-400.714c0.004-0.014 0.010-0.026 0.013-0.040l40.686-138.998c-27.39-18.302-45.473-49.493-45.473-84.835 0-56.221 45.737-101.962 101.958-101.962s101.958 45.741 101.958 101.962c0 23.222-7.819 44.642-20.939 61.806h252.181c-13.123-17.163-20.943-38.582-20.943-61.806 0-56.221 45.742-101.962 101.962-101.962s101.958 45.741 101.958 101.962c0 56.221-45.737 101.962-101.958 101.962-1.435 0-2.861-0.053-4.282-0.11-0.686 0.070-1.384 0.11-2.087 0.11h-427.504l-31.46 107.474h531.699c18.219 0 34.038 11.705 39.367 29.128l109.658 358.531c3.859 12.613 1.572 25.928-6.271 36.528zM539.010 711.222h51.215v-51.216c0-11.088 8.989-20.079 20.078-20.079 11.086 0 20.078 8.991 20.078 20.079v51.216h51.215c11.086 0 20.078 8.989 20.078 20.079 0 11.088-8.991 20.079-20.078 20.079h-51.215v51.216c0 11.088-8.991 20.079-20.078 20.079-11.089 0-20.078-8.991-20.078-20.079v-51.216h-51.215c-11.086 0-20.078-8.991-20.078-20.079s8.991-20.079 20.078-20.079z" />
<glyph unicode="&#xe919;" glyph-name="add-to-cart-alt" d="M1001.506 717.905h-365.127v183.914c0 12.416-10.066 22.482-22.482 22.482s-22.482-10.066-22.482-22.482v0-183.914h-357.035l-24.956 139.621c-1.935 10.614-11.108 18.553-22.137 18.553-0.121 0-0.242-0.001-0.366-0.004h-164.56c-12.416 0-22.482-10.066-22.482-22.482s10.066-22.482 22.482-22.482v0h146.139l110.281-615.029c-42.063-16.223-71.361-56.32-71.361-103.262 0-60.969 49.425-110.392 110.392-110.392s110.392 49.425 110.392 110.392c0 24.699-8.112 47.505-21.815 65.894l0.206-0.293h408.855c-13.349-18.010-21.365-40.669-21.365-65.203 0-60.844 49.326-110.167 110.167-110.167s110.167 49.326 110.167 110.167c0 60.844-49.326 110.167-110.167 110.167-0.037 0-0.074 0-0.112 0h-580.961l-15.626 87.121h531.954c52.249 0.014 96.166 35.673 108.759 83.98l0.17 0.783 74.757 294.979c0.436 1.653 0.685 3.553 0.685 5.508 0 12.416-10.066 22.482-22.482 22.482-0.005 0-0.008 0-0.008 0v0zM383.217 112.657c0-36.072-29.242-65.313-65.313-65.313s-65.313 29.242-65.313 65.313c0 36.072 29.242 65.313 65.313 65.313v0c36.047-0.062 65.25-29.268 65.313-65.309v-0.006zM969.691 112.657c0-36.072-29.242-65.313-65.313-65.313s-65.313 29.242-65.313 65.313c0 36.072 29.242 65.313 65.313 65.313v0c36.047-0.062 65.25-29.268 65.313-65.309v-0.006zM905.389 405.952c-7.637-29.493-34.013-50.926-65.394-50.926-0.008 0-0.023 0-0.034 0h-539.595l-58.233 317.912h348.49v-158.394l-89.932 89.932c-4.072 4.072-9.697 6.588-15.909 6.588-12.425 0-22.497-10.072-22.497-22.497 0-6.212 2.518-11.837 6.588-15.909v0l129.165-128.267c1.035-1.024 2.177-1.949 3.4-2.759l0.083-0.052 1.685-0.899 2.247-1.125 2.247-0.675 1.912-0.564c1.319-0.275 2.834-0.432 4.383-0.432s3.067 0.157 4.527 0.458l-0.145-0.026 1.912 0.564 2.247 0.675 1.799 1.349 1.685 0.899c1.307 0.862 2.446 1.787 3.485 2.815l-0.004-0.004 128.152 127.594c4.041 4.083 6.541 9.703 6.541 15.909 0 12.489-10.126 22.614-22.614 22.614-6.287 0-11.975-2.565-16.072-6.708l-89.933-89.933v158.844h337.25z" />
<glyph unicode="&#xe91a;" glyph-name="arrow-down" d="M-0.137 685.225l512.031-512.031 511.969 512.031-72.603 72.603-439.398-439.398-439.398 439.398z" />
<glyph unicode="&#xe91b;" glyph-name="arrow-right" horiz-adv-x="1014" d="M287.439-44.483l512.028 512.028-512.028 511.972-72.604-72.604 439.397-439.397-439.397-439.397z" />
<glyph unicode="&#xe91c;" glyph-name="icon-calendar" d="M932.247 866.286h-71.675v-88.667c0-49.017-50.542-85.617-102.828-85.617s-106.314 36.6-106.314 85.617v88.667h-278.858v-88.667c0-49.017-52.286-85.617-104.572-85.617s-104.572 36.6-104.572 85.617v88.667h-71.675c-37.472 0-67.753-28.975-67.753-64.050v-778.839c0-35.075 30.283-63.397 67.753-63.397h840.492c37.472 0 67.753 28.322 67.753 63.614v778.622c0 35.075-30.283 64.050-67.753 64.050zM895.428 90.933c0-14.378-12.636-26.142-27.886-26.142l-711.303-0.217c-15.25 0.653-27.667 12.2-27.667 26.578v504.339c0 15.033 12.853 26.797 28.975 26.797h709.125c15.903 0 28.758-11.547 28.758-26.361v-504.992zM337.714 796.572c0-38.561-31.153-69.714-69.714-69.714v0c-38.561 0-69.714 31.153-69.714 69.714v69.714c0 38.561 31.153 69.714 69.714 69.714v0c38.561 0 69.714-31.153 69.714-69.714v-69.714zM825.714 796.572c0-38.561-31.153-69.714-69.714-69.714v0c-38.561 0-69.714 31.153-69.714 69.714v69.714c0 38.561 31.153 69.714 69.714 69.714v0c38.561 0 69.714-31.153 69.714-69.714v-69.714z" />
<glyph unicode="&#xe91d;" glyph-name="star-filled" d="M710.216 361.179l313.666 231.747-389.119 2.155-122.881 369.719-122.881-369.719-389.119-2.155 313.666-231.747-118.568-370.795 316.9 227.434 316.9-227.434z" />
<glyph unicode="&#xe91e;" glyph-name="star" d="M196.062-9.080l117.49 370.796-313.667 230.67 389.12 2.154 122.88 369.717 122.88-369.717 389.12-2.154-313.667-230.67 117.49-370.796-316.901 226.357-314.743-226.357zM512.963 271.172l234.982-168.151-87.31 275.94 232.824 171.384-289.953 2.154-91.62 274.861-91.62-274.861-289.953-2.154 232.824-171.384-87.31-275.94 237.136 168.151z" />
<glyph unicode="&#xe91f;" glyph-name="icon-folder" d="M958.851 612.264h-893.703c-45.429 0-47.739-23.613-45.173-52.616l33.366-469.694c2.31-28.746 8.983-52.616 54.156-52.616h811.57c46.199 0 51.589 23.613 54.156 52.616l31.056 475.598c2.31 28.746 0 46.713-45.429 46.713zM948.842 737.261c-1.283 31.826-11.55 39.269-38.756 39.269 0 0-311.59 0-367.543 0s-62.626-0.77-104.975 44.659c-35.163 37.986-21.303 37.473-93.938 37.473-58.006 0-193.267 0-193.267 0-44.659 0-60.572 3.85-64.679-42.606-3.85-42.863-12.833-146.811-14.116-162.724h881.383l-4.107 83.929z" />
<glyph unicode="&#xe920;" glyph-name="icon-user" d="M751.595 639.676c0-158.79-107.27-287.514-239.595-287.514s-239.595 128.724-239.595 287.514c0 158.79 107.27 287.514 239.595 287.514s239.595-128.724 239.595-287.514zM981.606 107.775c-43.127 86.254-124.589 158.133-230.011 201.26-28.751 9.583-62.295 9.583-86.254-4.792-47.919-28.751-95.838-43.127-153.34-43.127s-105.422 14.376-153.34 43.127c-23.959 9.583-57.503 14.376-86.254 0-105.422-43.127-186.884-115.006-230.011-201.26-33.544-62.295 19.168-134.174 91.047-134.174h757.12c71.879 0 124.589 71.879 91.047 138.965z" />
<glyph unicode="&#xe921;" glyph-name="sharing-files" d="M803.315 657.944c2.886 0 5.77-0.576 8.656-0.576v0c79.639 0 146.004 62.903 150.621 142.541 4.617 83.102-58.864 154.66-141.965 159.854-83.678 4.617-154.66-59.44-159.278-141.965-1.155-20.199 1.731-39.243 7.502-57.132l-358.952-214.1c-26.546 22.507-60.595 36.357-98.107 36.357-83.102 0-150.621-67.52-150.621-150.621s67.52-150.621 150.621-150.621c35.202 0 68.096 12.119 93.489 32.894l350.295-190.441c-9.233-35.78-4.617-73.29 12.695-106.185 25.969-50.207 77.331-81.947 133.885-81.947v0c24.238 0 47.899 6.349 69.251 17.889 73.869 38.088 102.722 130.423 64.634 203.715-25.969 50.207-77.331 81.37-133.885 81.37-24.238 0-47.899-5.77-69.251-17.313-17.313-9.233-32.894-21.352-45.013-35.78l-338.755 184.092c8.656 19.044 13.85 40.396 13.85 62.903 0 20.775-4.039 40.396-11.543 58.287l354.913 210.64c24.818-25.393 58.866-42.129 96.956-43.86zM730.599 813.183c2.308 43.282 38.088 76.753 81.37 76.753 1.731 0 3.463 0 4.617 0 45.013-2.886 79.063-40.974 76.753-85.988-2.308-44.437-40.974-79.063-85.988-76.753-45.011 2.886-79.637 41.551-76.753 85.988zM130.423 432.301c0 45.013 36.357 81.37 81.37 81.37s81.37-36.357 81.37-81.37-36.357-81.37-81.37-81.37-81.37 36.357-81.37 81.37zM764.648 159.914c11.543 6.349 24.238 9.233 37.512 9.233 30.587 0 58.287-16.736 72.714-43.858 20.775-39.819 5.194-89.45-34.626-109.647-11.543-6.349-24.238-9.233-37.512-9.233v0c-30.587 0-58.287 16.736-72.714 43.858-9.811 19.044-12.119 41.551-5.194 62.326 5.77 20.197 20.199 37.51 39.819 47.321z" />
<glyph unicode="&#xe922;" glyph-name="danger-sign" d="M540.572 879.086c-6.030 10.413-16.991 16.443-28.501 16.443s-22.473-6.030-28.501-16.443l-479.047-829.285c-6.030-10.413-6.030-22.473 0-32.886s16.991-16.443 28.501-16.443h958.092c18.088 0 32.886 14.799 32.886 32.886 0 7.125-2.192 13.155-5.48 18.635l-477.95 827.094zM90.028 66.244l422.041 730.626 422.043-730.626h-844.084zM478.635 570.501v-252.129c0-18.088 14.799-32.886 32.886-32.886s32.886 14.799 32.886 32.886v252.129c0 18.088-14.799 32.886-32.886 32.886s-32.886-14.799-32.886-32.886zM511.521 241.637c-18.088 0-32.886-14.799-32.886-32.886v-21.924c0-18.088 14.799-32.886 32.886-32.886s32.886 14.799 32.886 32.886v21.924c0 18.088-14.799 32.886-32.886 32.886z" />
<glyph unicode="&#xe923;" glyph-name="dialogue-balloon" d="M117.41 416.227l-24.814-139.197c-2.42-13.92 3.027-27.839 14.525-35.708 6.051-4.842 13.92-6.658 21.183-6.658 6.051 0 12.105 1.211 16.945 4.236l145.248 78.071c31.47-136.17 182.771-239.66 363.725-239.66 12.709 0 25.418 0.604 38.128 1.816l187.007-100.463c5.447-3.027 11.498-4.236 16.945-4.236 7.262 0 15.129 2.42 21.183 6.658 11.498 7.867 16.945 21.787 14.525 35.708l-24.814 139.197c74.44 55.073 116.803 131.328 116.803 213.030 0 135.566-119.225 253.58-285.654 284.445-15.734 149.484-174.902 268.103-368.565 268.103-203.954 0-369.778-130.723-369.778-291.705 0.604-82.309 42.97-159.169 117.41-213.637zM951.98 369.021c0-63.546-37.523-124.065-103.489-165.824-12.105-7.867-18.761-22.392-16.34-36.917l15.736-88.36-130.723 70.204c-6.658 3.631-13.92 4.842-21.183 4.236-13.92-1.211-28.445-2.42-41.759-2.42-149.484 0-273.552 81.702-294.128 187.612 3.027 0 6.658 0 9.683 0 182.771 0 334.675 105.305 364.332 242.686 127.699-26.63 217.872-113.174 217.872-211.217zM370.383 848.34c164.009 0 297.154-98.043 297.154-219.083s-133.146-219.081-297.154-219.081c-13.314 0-27.839 0.604-41.759 2.42-7.262 0.604-14.525-0.604-21.183-4.236l-130.723-70.204 15.736 88.36c2.42 14.525-3.631 29.050-16.34 36.917-65.966 41.759-103.489 102.278-103.489 165.824 0.604 120.436 133.75 219.083 297.759 219.083z" />
<glyph unicode="&#xe924;" glyph-name="menu-bold" d="M-0.143 861.265h1024v-86.71h-1024v86.71zM-0.143 528.018h1024v-86.71h-1024v86.71zM-0.143 194.6h1024v-86.71h-1024v86.71z" />
<glyph unicode="&#xe925;" glyph-name="office-monthly-calendar" d="M982.805 865.84h-105.931c-19.421 0-35.31-15.89-35.31-35.31s15.89-35.31 35.31-35.31h70.621v-788.598h-870.99v788.598h94.16c19.421 0 35.31 15.89 35.31 35.31s-15.89 35.31-35.31 35.31h-129.471c-19.421 0-35.31-15.89-35.31-35.31v-859.219c0-19.421 15.89-35.31 35.31-35.31h941.609c19.421 0 35.31 15.89 35.31 35.31v859.219c0.002 19.421-15.888 35.31-35.308 35.31zM559.081 865.84h-100.047c-19.421 0-35.31-15.89-35.31-35.31s15.89-35.31 35.31-35.31h100.047c19.421 0 35.31 15.89 35.31 35.31s-15.89 35.31-35.31 35.31zM300.138 230.254h-82.391c-19.421 0-35.31-15.89-35.31-35.31v-58.85c0-19.421 15.89-35.31 35.31-35.31h82.391c19.421 0 35.31 15.89 35.31 35.31v58.85c0 19.421-15.89 35.31-35.31 35.31zM553.195 230.254h-88.276c-19.421 0-35.31-15.89-35.31-35.31v-58.85c0-19.421 15.89-35.31 35.31-35.31h88.276c19.421 0 35.31 15.89 35.31 35.31v58.85c0 19.421-15.89 35.31-35.31 35.31zM335.448 389.15c0 19.421-15.89 35.31-35.31 35.31h-82.391c-19.421 0-35.31-15.89-35.31-35.31v-58.85c0-19.421 15.89-35.31 35.31-35.31h82.391c19.421 0 35.31 15.89 35.31 35.31v58.85zM588.505 389.15c0 19.421-15.89 35.31-35.31 35.31h-88.276c-19.421 0-35.31-15.89-35.31-35.31v-58.85c0-19.421 15.89-35.31 35.31-35.31h88.276c19.421 0 35.31 15.89 35.31 35.31v58.85zM800.367 424.46h-82.391c-19.421 0-35.31-15.89-35.31-35.31v-58.85c0-19.421 15.89-35.31 35.31-35.31h82.391c19.421 0 35.31 15.89 35.31 35.31v58.85c0 19.421-15.89 35.31-35.31 35.31zM182.436 589.241v-58.85c0-19.421 15.89-35.31 35.31-35.31h82.391c19.421 0 35.31 15.89 35.31 35.31v58.85c0 19.421-15.89 35.31-35.31 35.31h-82.391c-19.421 0-35.31-15.89-35.31-35.31zM588.505 589.241c0 19.421-15.89 35.31-35.31 35.31h-88.276c-19.421 0-35.31-15.89-35.31-35.31v-58.85c0-19.421 15.89-35.31 35.31-35.31h88.276c19.421 0 35.31 15.89 35.31 35.31v58.85zM835.677 589.241c0 19.421-15.89 35.31-35.31 35.31h-82.391c-19.421 0-35.31-15.89-35.31-35.31v-58.85c0-19.421 15.89-35.31 35.31-35.31h82.391c19.421 0 35.31 15.89 35.31 35.31v58.85zM323.677 724.598c19.421 0 35.31 15.89 35.31 35.31v164.781c0 19.421-15.89 35.31-35.31 35.31h-35.31c-19.421 0-35.31-15.89-35.31-35.31v-164.781c0-19.421 15.89-35.31 35.31-35.31h35.31zM729.746 960h-35.31c-19.421 0-35.31-15.89-35.31-35.31v-164.781c0-19.421 15.89-35.31 35.31-35.31h35.31c19.421 0 35.31 15.89 35.31 35.31v164.781c0 19.421-15.89 35.31-35.31 35.31z" />
<glyph unicode="&#xe926;" glyph-name="tags" horiz-adv-x="1085" d="M256.035 703.968c0 40.565-32.567 73.133-73.133 73.133s-73.133-32.567-73.133-73.133 32.567-73.133 73.133-73.133 73.133 32.567 73.133 73.133zM865.674 374.867c0-19.427-7.998-38.282-21.139-51.423l-280.536-281.108c-13.712-13.141-32.567-21.139-51.994-21.139s-38.282 7.998-51.423 21.139l-408.521 409.093c-29.14 28.568-51.994 83.989-51.994 124.555v237.684c0 39.994 33.139 73.133 73.133 73.133h237.684c40.565 0 95.988-22.854 125.127-51.994l408.521-407.95c13.141-13.712 21.139-32.567 21.139-51.994zM1085.076 374.867c0-19.427-7.998-38.282-21.139-51.423l-280.536-281.108c-13.712-13.141-32.567-21.139-51.994-21.139-29.711 0-44.565 13.712-63.991 33.71l268.538 268.538c13.141 13.141 21.139 31.996 21.139 51.423s-7.998 38.282-21.139 51.994l-408.521 407.95c-29.14 29.14-84.561 51.994-125.127 51.994h127.985c40.565 0 95.988-22.854 125.127-51.994l408.521-407.95c13.141-13.712 21.139-32.567 21.139-51.994z" />
<glyph unicode="&#xe927;" glyph-name="heart-bold" d="M263.415 923.765c-67.622 0-135.154-26.912-186.517-80.665-102.724-107.503-102.608-280.080 0-387.668l418.981-439.403c3.98-4.202 9.598-6.815 15.827-6.815s11.847 2.614 15.818 6.804l0.010 0.010c139.794 146.297 279.526 292.761 419.321 439.062 102.724 107.504 102.724 280.164 0 387.668s-270.647 107.506-373.373 0l-61.605-64.328-61.605 64.668c-51.364 53.753-119.234 80.665-186.856 80.665zM263.415 880.88c55.908 0 111.909-22.422 155.203-67.731l77.602-81.346c3.98-4.202 9.598-6.815 15.827-6.815s11.848 2.614 15.818 6.805l0.010 0.010 77.262 80.665c86.589 90.619 223.479 90.617 310.067 0s86.587-236.807 0-327.424c-134.474-140.732-268.851-281.656-403.325-422.385l-403.325 422.725c-86.525 90.724-86.588 237.15 0 327.765 43.293 45.309 98.954 67.731 154.863 67.731z" />
<glyph unicode="&#xe928;" glyph-name="eye-view" d="M119.171 284.304c73.888-72.686 201.841-158.589 392.868-158.589s318.98 86.503 392.868 158.589c79.895 78.092 114.135 156.787 115.938 159.791 4.204 9.011 4.204 19.824 0 28.834-1.202 3.004-33.641 76.892-112.935 150.178-72.686 67.28-201.241 147.176-399.477 147.176s-324.387-80.497-395.873-147.776c-78.092-73.288-108.729-147.176-109.931-150.78-3.604-9.011-3.604-19.224 0.6-27.632 1.206-3.004 36.047-81.699 115.942-159.791zM506.633 695.794c96.716 0 175.408-78.695 175.408-175.408s-78.695-175.408-175.408-175.408-175.408 78.695-175.408 175.408c0 96.716 78.695 175.408 175.408 175.408zM302.99 660.954c-27.632-39.647-43.852-88.305-43.852-140.568 0-136.363 111.133-247.494 247.494-247.494s247.494 111.133 247.494 247.494c0 52.862-16.819 101.52-45.054 141.77 146.574-56.467 216.258-164.596 237.284-204.243-13.215-24.028-43.852-75.090-94.914-124.948-93.112-90.707-207.247-136.363-340.006-136.363s-246.894 46.856-340.006 136.963c-51.662 50.46-82.299 101.52-95.514 125.55 19.826 38.443 84.703 144.77 227.073 201.839z" />
<glyph unicode="&#xe929;" glyph-name="information-square" d="M512 598.975c21.662 0 39.385 17.723 39.385 39.385v39.385c0 21.662-17.723 39.385-39.385 39.385s-39.385-17.723-39.385-39.385v-39.385c0-21.662 17.723-39.385 39.385-39.385zM433.231 441.437h39.385v-223.179c0-21.662 17.723-39.385 39.385-39.385s39.385 17.723 39.385 39.385v262.563c0 21.662-17.723 39.385-39.385 39.385h-78.769c-21.662 0-39.385-17.723-39.385-39.385s17.723-39.385 39.385-39.385zM1024 920.615c0 21.662-17.723 39.385-39.385 39.385h-945.231c-21.662 0-39.385-17.723-39.385-39.385v-945.231c0-21.662 17.723-39.385 39.385-39.385h945.231c21.662 0 39.385 17.723 39.385 39.385v945.231zM945.231 14.769h-866.462v866.462h866.462v-866.462z" />
<glyph unicode="&#xe92a;" glyph-name="wide-angle-left" d="M688.468-48.236l-392.699 507.025 392.699 516.975 39.764-29.823-370.335-487.143 370.335-477.202z" />
<glyph unicode="&#xe92c;" glyph-name="left-quote" d="M1024 80.001v383.999h-255.998c0 141.12 114.752 255.998 255.998 255.998v128.001c-211.744 0-383.999-172.255-383.999-383.999v-383.999h383.999zM383.999 80.001v383.999h-255.998c0 141.12 114.752 255.998 255.998 255.998v128.001c-211.744 0-383.999-172.255-383.999-383.999v-383.999h383.999z" />
<glyph unicode="&#xe92d;" glyph-name="right-quote" d="M0 847.999v-383.999h255.998c0-141.12-114.752-255.998-255.998-255.998v-128.001c211.744 0 383.999 172.255 383.999 383.999v383.999h-383.999zM640.001 847.999v-383.999h255.998c0-141.12-114.752-255.998-255.998-255.998v-128.001c211.744 0 383.999 172.255 383.999 383.999v383.999h-383.999z" />
<glyph unicode="&#xe92e;" glyph-name="plus" horiz-adv-x="1028" d="M962.173 528.696h-383.999v383.999c0 38.4-25.6 64-64 64s-64-25.6-64-64v-383.999h-383.999c-38.4 0-64-25.6-64-64s25.6-64 64-64h383.999v-383.999c0-38.4 25.6-64 64-64s64 25.6 64 64v383.999h383.999c38.4 0 64 25.6 64 64s-25.6 64-64 64z" />
<glyph unicode="&#xe92f;" glyph-name="close" d="M512 551.649l-426.676 426.676-85.324-85.324 426.676-426.676-426.676-426.676 85.324-85.324 426.676 426.676 426.676-426.676 85.324 85.324-426.676 426.676 426.676 426.676-85.324 85.324-426.676-426.676z" />
<glyph unicode="&#xe930;" glyph-name="archive-box" d="M-20.48 628.224l204.8 327.68h614.4l204.8-327.68v-655.36h-1024v655.36zM953.345 628.224l-179.2 286.72h-565.251l-179.2-286.72h923.651zM20.48 587.264v-573.44h942.080v573.44h-942.080zM389.014 382.464h205.014c45.119 0 81.814-36.677 81.814-81.92 0-45.559-36.628-81.92-81.814-81.92h-205.014c-45.119 0-81.814 36.677-81.814 81.92 0 45.559 36.628 81.92 81.814 81.92zM389.24 341.504c-22.688 0-41.080-18.181-41.080-40.96 0-22.621 17.935-40.96 41.080-40.96h204.561c22.688 0 41.080 18.181 41.080 40.96 0 22.621-17.935 40.96-41.080 40.96h-204.561zM266.24 873.984l-24.575-40.96h499.709l-24.575 40.96h-450.56zM212.989 792.064l-24.575-40.96h606.211l-24.575 40.96h-557.060zM163.84 710.144l-24.575-40.96h704.509l-24.575 40.96h-655.36z" />
<glyph unicode="&#xe931;" glyph-name="document" d="M716.8 300.544h245.76v-286.72h-942.080v286.72h245.76v-61.44c0-56.554 45.682-102.4 102.239-102.4h246.083c56.465 0 102.239 45.452 102.239 102.4v61.44zM-20.48 321.024v-348.16h1024v368.64l-122.88 196.608v131.072l-245.76 286.72h-450.447c-45.306 0-82.033-36.742-82.033-82.122v-335.67l-122.88-196.608v-20.48zM102.4 341.504h-72.705l72.705 116.328v-116.328zM880.64 341.504v116.328l72.705-116.328h-72.705zM143.36 341.504v532.355c0 23.108 18.258 41.085 40.778 41.085h409.782v-204.558c0-45.85 36.639-82.162 81.834-82.162h163.926v-286.72h-696.32zM634.88 894.464l192.509-225.28h-151.684c-22.368 0-40.827 18.5-40.827 41.32v183.96zM307.2 300.544h368.64v-61.44c0-34.168-27.625-61.44-61.702-61.44h-245.236c-33.994 0-61.702 27.507-61.702 61.44v61.44zM225.28 505.344v-40.96h532.48v40.96h-532.48zM225.28 833.024v-40.96h286.72v40.96h-286.72zM225.28 669.184v-40.96h286.72v40.96h-286.72z" />
<glyph unicode="&#xe932;" glyph-name="view" d="M1017.492 467.917c-9.148 12.514-227.114 306.413-505.497 306.413s-496.359-293.899-505.497-306.401c-8.664-11.872-8.664-27.974 0-39.846 9.138-12.514 227.114-306.413 505.497-306.413s496.349 293.901 505.497 306.403c8.676 11.87 8.676 27.984 0 39.844zM511.995 189.186c-205.058 0-382.661 195.066-435.235 258.837 52.506 63.826 229.736 258.791 435.235 258.791 205.048 0 382.639-195.032 435.235-258.837-52.506-63.824-229.736-258.791-435.235-258.791zM511.995 650.549c-111.684 0-202.55-90.866-202.55-202.55s90.866-202.55 202.55-202.55 202.55 90.866 202.55 202.55-90.866 202.55-202.55 202.55zM511.995 312.967c-74.46 0-135.032 60.574-135.032 135.032s60.574 135.032 135.032 135.032 135.032-60.574 135.032-135.032-60.572-135.032-135.032-135.032z" />
<glyph unicode="&#xe935;" glyph-name="cog2" horiz-adv-x="878" d="M585.143 448c0 80.571-65.714 146.286-146.286 146.286s-146.286-65.714-146.286-146.286 65.714-146.286 146.286-146.286 146.286 65.714 146.286 146.286zM877.714 510.286v-126.857c0-8.571-6.857-18.857-16-20.571l-105.714-16c-6.286-18.286-13.143-35.429-22.286-52 19.429-28 40-53.143 61.143-78.857 3.429-4 5.714-9.143 5.714-14.286s-1.714-9.143-5.143-13.143c-13.714-18.286-90.857-102.286-110.286-102.286-5.143 0-10.286 2.286-14.857 5.143l-78.857 61.714c-16.571-8.571-34.286-16-52-21.714-4-34.857-7.429-72-16.571-106.286-2.286-9.143-10.286-16-20.571-16h-126.857c-10.286 0-19.429 7.429-20.571 17.143l-16 105.143c-17.714 5.714-34.857 12.571-51.429 21.143l-80.571-61.143c-4-3.429-9.143-5.143-14.286-5.143s-10.286 2.286-14.286 6.286c-30.286 27.429-70.286 62.857-94.286 96-2.857 4-4 8.571-4 13.143 0 5.143 1.714 9.143 4.571 13.143 19.429 26.286 40.571 51.429 60 78.286-9.714 18.286-17.714 37.143-23.429 56.571l-104.571 15.429c-9.714 1.714-16.571 10.857-16.571 20.571v126.857c0 8.571 6.857 18.857 15.429 20.571l106.286 16c5.714 18.286 13.143 35.429 22.286 52.571-19.429 27.429-40 53.143-61.143 78.857-3.429 4-5.714 8.571-5.714 13.714s2.286 9.143 5.143 13.143c13.714 18.857 90.857 102.286 110.286 102.286 5.143 0 10.286-2.286 14.857-5.714l78.857-61.143c16.571 8.571 34.286 16 52 21.714 4 34.857 7.429 72 16.571 106.286 2.286 9.143 10.286 16 20.571 16h126.857c10.286 0 19.429-7.429 20.571-17.143l16-105.143c17.714-5.714 34.857-12.571 51.429-21.143l81.143 61.143c3.429 3.429 8.571 5.143 13.714 5.143s10.286-2.286 14.286-5.714c30.286-28 70.286-63.429 94.286-97.143 2.857-3.429 4-8 4-12.571 0-5.143-1.714-9.143-4.571-13.143-19.429-26.286-40.571-51.429-60-78.286 9.714-18.286 17.714-37.143 23.429-56l104.571-16c9.714-1.714 16.571-10.857 16.571-20.571z" />
<glyph unicode="&#xe936;" glyph-name="cog3" d="M941.839 342.818h-54.229c-8.806-31.907-21.421-62.175-37.6-90.231l50.133-50.092c32.070-32.070 32.070-84.088 0-116.158l-29.039-29.039c-32.070-32.070-84.088-32.070-116.158 0l-50.461 50.42c-27.975-15.933-58.12-28.343-89.863-36.985v-52.591c0-45.341-36.74-82.122-82.122-82.122h-41.040c-45.341 0-82.162 36.74-82.162 82.122v52.591c-31.702 8.642-61.888 21.094-89.863 36.985l-50.42-50.42c-32.029-32.070-84.047-32.070-116.117 0l-29.080 29.039c-32.070 32.070-32.070 84.088 0 116.158l50.133 50.092c-16.179 28.097-28.794 58.325-37.641 90.231h-54.188c-45.382 0-82.122 36.74-82.122 82.081v41.081c0 45.341 36.74 82.122 82.122 82.122h53.574c8.478 31.579 20.602 61.642 36.33 89.535l-48.208 48.167c-32.070 32.070-32.070 84.088 0 116.158l29.039 28.999c32.070 32.070 84.088 32.070 116.117 0l47.225-47.225c28.917 16.834 60.127 29.941 93.057 38.91v55.212c0.041 45.382 36.863 82.122 82.203 82.122h41.040c45.341 0 82.122-36.74 82.122-82.122v-55.171c33.012-9.011 64.182-22.118 93.057-38.951l47.225 47.225c32.070 32.070 84.088 32.070 116.158 0l29.039-28.999c32.070-32.070 32.070-84.088 0-116.158l-48.167-48.167c15.728-27.893 27.852-57.956 36.371-89.576h53.574c45.341 0 82.122-36.781 82.122-82.122v-41.081c-0.041-45.3-36.781-82.040-82.162-82.040zM511.981 669.993c-124.718 0-225.844-101.126-225.844-225.844s101.126-225.844 225.844-225.844 225.844 101.126 225.844 225.844-101.126 225.844-225.844 225.844zM511.981 344.087c-56.686 0-102.683 45.914-102.683 102.642 0 56.686 45.996 102.642 102.683 102.642s102.642-45.955 102.642-102.642c0-56.727-45.955-102.642-102.642-102.642z" />
<glyph unicode="&#xe937;" glyph-name="cog4" d="M1024 384.992v128l-152.992 63.744c-4.256 12-8.736 23.616-14.24 35.008l61.76 153.76-90.528 90.496-152.384-62.752c-11.616 5.632-23.488 10.368-35.744 14.752l-64.864 152h-128l-63.264-151.488c-12.736-4.512-24.992-9.248-37.12-15.008l-152.128 61.12-90.496-90.496 62.016-150.752c-6.016-12.384-10.88-24.992-15.52-38.016l-150.496-64.352v-128l150.624-62.752c4.64-12.992 9.632-25.632 15.616-38.016l-60.864-151.744 90.496-90.496 151.136 62.24c12.128-5.76 24.512-10.368 37.248-14.752l64.736-151.488h128l63.36 152.256c12.128 4.512 24.128 9.248 35.616 14.752l153.504-61.504 90.496 90.496-63.008 152.736c5.376 11.488 9.76 23.136 14.016 35.008l153.024 65.248zM511.008 256c-105.984 0-192 86.016-192 192s86.016 192 192 192 192-86.016 192-192-86.016-192-192-192z" />
<glyph unicode="&#xe938;" glyph-name="back" d="M311.568 448.027l462.455 462.455c11.374 11.374 11.374 29.614 0 40.988s-29.614 11.374-40.988 0l-483.056-483.056c-11.374-11.374-11.374-29.614 0-40.988l483.056-482.842c5.58-5.58 13.090-8.584 20.387-8.584s14.807 2.79 20.387 8.584c11.374 11.374 11.374 29.614 0 40.988l-462.24 462.455z" />
<glyph unicode="&#xe939;" glyph-name="next" d="M774.115 468.413l-483.056 483.056c-11.374 11.374-29.614 11.374-40.988 0s-11.374-29.614 0-40.988l462.455-462.455-462.455-462.455c-11.374-11.374-11.374-29.614 0-40.988 5.58-5.58 13.090-8.584 20.387-8.584s14.807 2.79 20.387 8.584l483.056 483.056c11.374 11.159 11.374 29.614 0.215 40.773z" />
<glyph unicode="&#xe93a;" glyph-name="shopping-cart2" d="M37.882 836.925h108.595l154.687-559.394c4.419-16.416 19.572-27.781 36.619-27.781h475.422c15.153 0 28.412 8.84 34.725 22.729l172.995 397.764c5.052 11.995 3.788 25.254-3.158 35.988s-18.941 17.047-31.569 17.047h-525.298c-20.835 0-37.882-17.047-37.882-37.882s17.047-37.882 37.882-37.882h467.215l-140.164-321.999h-421.757l-154.684 559.394c-4.419 16.416-19.572 27.781-36.619 27.781h-137.009c-20.835 0-37.882-17.047-37.882-37.882s17.047-37.882 37.882-37.882zM301.795-16.69c47.353 0 85.866 38.513 85.866 85.866s-38.513 85.866-85.866 85.866-85.866-38.511-85.866-85.863 38.513-85.868 85.866-85.868zM838.462-16.69c1.894 0 4.419 0 6.313 0 22.729 1.894 43.565 11.995 58.718 29.675 15.153 17.047 22.099 39.146 20.835 62.506-3.158 46.722-44.195 82.71-91.548 79.553s-82.71-44.828-79.553-91.548c3.155-44.828 40.407-80.186 85.235-80.186z" />
<glyph unicode="&#xe93b;" glyph-name="profile" d="M510.319 388.308c151.331 0 274.075 122.746 274.075 274.075s-122.746 273.236-274.075 273.236-274.075-122.746-274.075-273.236 122.744-274.075 274.075-274.075zM510.319 864.157c110.975 0 201.774-90.797 201.774-201.774s-90.799-201.772-201.774-201.772-201.774 90.797-201.774 201.774 90.797 201.772 201.774 201.772zM36.151-39.619h951.699c20.177 0 36.151 15.973 36.151 36.151 0 189.163-153.852 343.856-343.856 343.856h-336.288c-189.163 0-343.856-153.852-343.856-343.856 0-20.177 15.973-36.151 36.151-36.151zM343.856 268.086h336.288c137.878 0 251.376-102.569 269.032-235.402h-874.352c17.655 131.992 131.154 235.402 269.032 235.402z" />
<glyph unicode="&#xe93c;" glyph-name="lovers-heart" d="M493.132-18.284c6.557-3.935 13.772-6.557 21.642-6.557 7.215 0 15.084 1.967 21.642 6.557 17.707 11.805 433.491 285.933 480.71 564.654 24.264 144.278-20.329 233.47-61.646 282.656-48.531 57.711-120.669 91.814-192.154 91.814-23.609 0-46.563-3.935-66.893-11.805-99.684-37.381-167.232-103.619-203.958-148.87-36.069 44.596-97.717 108.864-172.479 134.441-22.954 7.87-47.874 11.805-74.108 11.805-66.893 0-130.506-27.544-174.447-76.075-38.694-42.629-82.632-123.949-68.86-265.604 27.546-278.719 471.532-570.554 490.551-583.016zM129.811 777.873c40.004 43.939 89.847 50.498 116.079 50.498 17.052 0 33.446-2.622 48.531-7.87 91.157-30.824 163.952-146.903 165.265-147.558 7.215-11.805 20.329-19.019 34.101-18.362 13.772 0 26.232 7.87 33.446 19.674 0.655 1.312 66.238 112.799 197.399 161.985 11.15 3.935 24.922 6.557 38.694 6.557 48.531 0 97.717-24.264 131.818-64.27 44.596-52.466 59.678-128.538 43.939-219.041-17.052-99.684-98.372-219.041-235.437-345.614-77.385-71.483-153.46-126.571-188.874-151.493-37.381 25.577-118.046 84.6-200.024 159.362-142.966 131.163-223.63 252.489-233.468 350.861-8.525 89.845 7.87 160.672 48.531 205.268z" />
<glyph unicode="&#xe93d;" glyph-name="telephone-call-receiver" d="M89.405 3.786c1.974-1.974 4.606-3.949 7.24-5.923l36.195-22.375c1.317-0.657 3.291-1.974 4.606-2.632 54.623-24.349 115.826-36.854 177.029-36.854 105.295 0 199.403 36.854 265.872 103.32l341.552 341.552c105.954 105.954 132.278 287.589 63.835 441.584-0.657 1.974-1.974 3.949-3.291 5.923l-23.034 34.88c-1.317 1.974-3.291 3.949-4.606 5.923l-61.203 61.203c-19.083 19.083-44.749 29.612-71.072 29.612-24.349 0-48.040-9.871-65.152-26.983l-177.686-177.686c-37.512-37.512-36.195-98.715 1.974-136.883l69.758-69.758-237.572-237.575-71.074 71.074c-17.111 19.086-41.46 28.957-67.783 28.957-25.008 0-48.7-9.871-67.126-27.64l-177.686-177.686c-17.769-17.769-28.297-42.777-29.614-68.443-1.317-26.983 8.554-53.306 26.983-71.732l61.858-61.86zM86.116 149.883l177.686 177.686c6.58 6.58 17.111 5.923 24.349-1.317l98.715-98.715c15.137-15.137 40.143-15.137 55.937 0l292.852 292.852c7.24 7.24 11.846 17.769 11.846 27.64s-3.949 20.4-11.846 27.64l-97.398 98.715c-7.24 7.24-8.554 19.086-1.974 25.666l177.686 177.686c2.632 2.632 5.266 3.949 9.214 3.949 5.266 0 11.188-2.632 15.137-6.58l57.912-57.912 19.086-28.957c62.52-144.781 19.086-282.981-48.7-350.107l-341.552-342.869c-51.989-51.989-126.355-80.289-210.592-80.289-49.357 0-98.715 9.871-142.149 28.957l-30.272 18.426-58.571 58.571c-3.949 3.949-3.949 9.871-3.949 12.503 0.66 6.583 3.291 12.505 6.583 16.454z" />
<glyph unicode="&#xe93e;" glyph-name="magnifying-glass-browser" d="M705.315 291.547c65.463 70.869 106.304 165.762 106.304 270.264 0 219.215-178.374 398.189-398.189 398.189s-398.189-178.974-398.189-398.189 178.374-398.189 398.189-398.189c89.488 0 171.767 29.428 238.432 79.277l296.089-296.089c7.207-7.207 16.216-10.811 25.225-10.811s18.617 3.604 25.225 10.811c13.814 13.814 13.814 36.635 0 51.049l-293.085 293.687zM87.311 561.811c0 179.576 145.943 326.119 326.119 326.119 179.576 0 326.119-145.943 326.119-326.119s-145.943-326.119-326.119-326.119-326.119 146.543-326.119 326.119z" />
<glyph unicode="&#xe9cb;" glyph-name="link" d="M438.513 337.748c-13.63 0-27.253 5.197-37.65 15.594-97.416 97.418-97.416 255.93 0 353.349l196.609 196.609c47.192 47.19 109.935 73.181 176.672 73.181s129.482-25.99 176.675-73.178c97.413-97.418 97.413-255.93 0-353.349l-89.87-89.87c-20.794-20.794-54.509-20.794-75.306 0-20.791 20.791-20.791 54.51 0 75.306l89.87 89.87c55.892 55.895 55.892 146.846 0 202.741-27.076 27.076-63.078 41.99-101.37 41.99s-74.291-14.91-101.37-41.99l-196.609-196.606c-55.895-55.895-55.895-146.849 0-202.743 20.794-20.791 20.791-54.51 0-75.306-10.392-10.394-24.026-15.594-37.65-15.594zM249.857-47.513c-66.74 0-129.485 25.99-176.672 73.178-97.416 97.418-97.416 255.93 0 353.349l89.87 89.87c20.794 20.791 54.51 20.791 75.306 0s20.794-54.51 0-75.306l-89.87-89.87c-55.895-55.895-55.895-146.849 0-202.743 27.073-27.073 63.075-41.987 101.37-41.987s74.291 14.91 101.372 41.99l196.609 196.606c55.892 55.895 55.892 146.849 0 202.743-20.794 20.794-20.791 54.51 0 75.306 20.791 20.791 54.51 20.791 75.306-0.003 97.413-97.416 97.413-255.93 0.003-353.349l-196.61-196.609c-47.195-47.192-109.94-73.181-176.677-73.181z" />
</font>
</defs>
</svg>
